Мистер Питкин / Mister Pitkin (1953-1966) DVDRip [Коллекция фильмов]

AngelBlade Аватара пользователя
Главный Администратор

Раздал: 4.65 ТБ
Скачал: 511.72 ГБ
Ратио: 9.311
Сообщения: 651

Зарегистрирован: 23 мар 2008, 12:00
Откуда: берутся дети??? O_o
Мистер Питкин / Mister Pitkin (1953-1966) DVDRip



#7

Описание:
12 фильмов:
1. Неприятности в лавке (1953)
2. К лучшему (1955)
3. Калиф на час (1955)
4. Вверх тормашками (1956)
5. В тылу врага (1958)
6. Мистер Питкин на эстраде (1959)
7. Порода бульдог (1960)
8. Девушка на борту (1961)
9. В ногу (1962)
10. Мистер Питкин В больнице (1963)
11. Ранняя пташка (1965)
12. Из лучших побуждений (1966)
(Подробное описание фильмов в теме)

Жанр: Комедия

Режиссер: Джон Педди Карстейрс, Роберт Эшер, Генри Каплан

Актеры: Норман Уиздом, Морис Ковэн, Мойра Листер, Белина Ли, Колин Гордон, Лайонел Джеффрис, Онор Блэкмен, Джун Лэверик, Джерри Десмонд, Хэтти Жак, Эдди Лесли, Дерек Бонд, Анджела Браун, Трэйси Крисп, Ноэль Дайсон, Дерек Френсис, Питер Джонс, Дэвид Лодж

Перевод: дублированный, профессиональный (многоголосый), профессиональный (двухголосый), любительский (одноголосый)

Продолжительность: 12 x ~ 01:30:00



Сэр Норман Джозеф Уиздом
Дата рождения: 4 февраля 1915
Место рождения: Мэрилибон, Лондон, Англия
Дата смерти: 4 октября 2010 (95 лет)
Место смерти: Балласалла, Остров Мэн

Сэр Норман Джозеф Уиздом (англ. Sir Norman Joseph Wisdom) - английский актёр-комик. Известен также как композитор, продюсер и сценарист.
Биография

Родился 4 февраля 1915 года. Его отец был таксистом-кокни. Отец был пьянчуга-драчун, разведясь, выгнал в 1924 году девятилетнего сына на улицу. Норман бродяжничал, некоторое время жил у опекунов. Затем нанялся в прислуги к капитану торгового судна. Работал портье и шахтером. В 1930 году (в 15 лет) в 10-м королевском полку гусар стал барабанщиком. Вместе с полком оказался в Индии. В Индии выучился играть на трубе и кларнете. В это же время стал чемпионом индийского контингента британской армии по боксу в весе пера.

Его актёрский дебют состоялся в 1946 году. Начинал актёр работать универсальным эксцентриком в мюзик — холле. Очень хорошо ему удавались комедийные персонажи в различных водевилях. Его комедийные способности заметили и пригласили на телестудию. После участия в ряде телешоу Уиздом уехал в США, где в течение года успешно выступал в телепрограмме «Водевиль».

В кино Норман дебютировал в 1948 году («Свидание с мечтой»). С 1958 года Уиздом известен как сценарист («Мистер Питкин в тылу врага»), а в 1969 выступил в качестве продюсера («Что хорошо для гуся»). В 1953 году Норман Уиздом написал к фильму «Неприятности в лавке» песню «Не смейтесь надо мной», ставшую впоследствии его «визитной карточкой». Наибольшую известность актёру принес созданный им комический герой — мистер Питкин, появлявшийся в четырех фильмах. В дальнейшем снимался в телесериалах. Несмотря на преклонный возраст, Норман Уиздом продолжал выступать на сцене, гастролируя со своим шоу.

Он создал образ мистера Питкина — трусливого героя, подхалима-задиру, который, наломав дров, плаксиво-истерично вопит «Мистер Гримсдейл!», призывая на помощь начальника-мэра. Несмотря на обвинения в старомодности — он хранил традиции, восходящие к немой комедии используя эксцентричный юмор и утрированную мимику. Норман Уиздом говорил так: «Мои комедии предназначены для детей от 3 до 93 лет от роду».

Норман Уиздом был любимым клоуном Чарли Чаплина [Газета «Коммерсантъ» № 185 (4485) от 06.10.2010]

В 90 лет он сыграл в клипе юных панков с острова Мэн — «Twisted Angels». Выступления на телевидении и в кабаре он оставил всего за полгода до смерти.

Знаменитый актёр скончался 4 октября 2010 года на 96-м году жизни в доме престарелых на острове Мэн в Великобритании. По словам сына актёра, причиной его смерти стал инфаркт. За последние годы он перенес несколько инфарктов.

Интересные факты

• Во время Второй мировой войны актёр служил телефонистом в бункере Уинстона Черчилля. Однажды разъярённый Черчилль пришёл в аппаратную узнать, что за идиот вечно соединяет его не туда. Норман назвал премьера «Винни», за что чуть не попал под трибунал.
• Энвер Ходжа объявил «мистера Питкина» национальным героем Албании. Поэтому в изолированной от мира стране показывали фильмы капиталистических стран, только те где он играл. В 1990-х его принимали в Тиране, как высокопоставленное лицо на высшем уровне. В 2001 году, он вышел на поле перед началом футбольного матча между сборными Англии и Албании, чем вызвал такой экстаз у болельщиков, что даже Дэвид Бекхэм взревновал.
• 28 декабря 2008 года спутниковый телеканал Sky News объявил, что Норман Уиздом умер, представив заранее написанный некролог, о чём объявили некоторые телевизионные новостные каналы, и написали на своём веб-сайте. Вскоре когда стало очевидно, что другие новостные источники ничего подобного не знают, Sky News убрали некролог о смерти, заявив, что это было издано по ошибке в ответ на e-mail вопросы.
• Несмотря на то, что во многих русских названиях фильмов с участием Нормана Уиздома фигурирует фамилия Питкин, в действительности такой персонаж, как Норман Питкин встречается всего в четырех картинах. Во всех остальных фильмах, которые принято условно относить к циклу комедий о мистере Питкине, главный герой имеет другую фамилию, либо его зовут просто Норман. Всего о незадачливом персонаже по имени Норман было снято 12 фильмов, первые шесть из которых снял режиссер Джон Пэдди Карстерс, а остальные Роберт Эшер. Все фильмы снимались на студии Rank Organization в период с 1953 по 1966 годы. К этой серии фильмов можно также отнести комедию «Девушка на борту», снятую компанией United Artists, поскольку ее герой, Сэм Марлоу, в целом повторяет привычный образ поведения мистера Питкина.
• Эдвард Чэпмен, сыгравший мистера Гримсдейла в фильмах «Мистер Питкин в тылу врага» и «Приключения Питкина в больнице», также снимался вместе с Норманом Уиздомом в картинах «Ранняя пташка» (мистер Гримсдейл), «Просто так повезло» (мистер Стоунвэй) и «Порода Бульдог» (мистер Филпотс). В фильме «В ногу», где по обыкновению Эдвард Чэпмен должен был сыграть напарника мистера Питкина, Норман Уиздом играл один, поскольку Эдвард Чэпмен в это время снимался в другом фильме.

Неофициальный сайт Нормана Уиздома


Фильмография

1948 — Свидание с мечтой / A Date with a Dream
1953 — Неприятности в лавке (Питкин и кража в универмаге) / Trouble in Store — Норман
1954 — К лучшему (Изобретательный мистер Питкин) / One Good Turn — Норман
1955 — Калиф на час / Man of the Moment — Норман
1956 — Вверх тормашками / Up in the World — Норман
1957 — Просто так повезло / Just My Luck — Норман Хакетт
1958 — Мистер Питкин в тылу врага / The Square Peg — Норман Питкин
1959 — Мистер Питкин на эстраде / Follow a Star — Норман Траскотт
1960 — Жил-был мошенник / There Was a Crooked Man
1960 — Порода Бульдог (Питкин из породы бульдогов) / The Bulldog Breed — Норман Пакл
1962 — Девушка на борту (Девушка с корабля) / The Girl on the Boat — Сэм Марлоу
1962 — В ногу (Питкин на дежурстве) / On the Beat — Норман Питкин
1963 — Приключения Питкина в больнице / A Stitch in Time — Норман Питкин
1965 — Ранняя пташка / The Early Bird — Норман Питкин
1966 — Из лучших побуждений (Время поджимает) / Press for Time — Норман Шилдс
1966 — День полный приключений / The Sandwich Man
1968 — В ночь облавы у Мински / The Night They Raided Minsky's — Чик Уильямс, звезда бурлеска
1969 — Что хорошо для гуся / What's Good for the Goose
1981 — Мирно уйти / Going Gently (телефильм)

Дискография и Виниловые диски

• I Would Like to Put on Record
• Jingle Jangle
• The Very Best of Norman Wisdom
• Androcles and the Lion
• Where’s Charley?
• Wisdom of a Fool
• Nobody’s Fool
• Follow a Star
• 1957 Original Chart Hits
• Follow a Star/Give Me a Night in June
• Happy Ending/The Wisdom Of A Fool
• Big in Albania — One Hit Wonderland

Книги

• Счастливый маленький демон: Норман Уиздом на острове, который он считает своим домом (2004)
• Norman Wisdom William Hall Мой путь — Arrow Books, 2003. — ISBN 978-0099446767.
• Не смейтесь надо мной / Потому, что я ***** (1992) (Две части автобиографии)
• Проблема в истории (1991)



Неприятности в лавке / Trouble in Store (1953) DVDRip

#7

Русское название: Неприятности в лавке
Оригинальное название: Trouble in Store
Год выхода: 1953
Страна: Великобритания
Жанр: комедия
Кинокомпания: Maurice Cowan Productions, Two Cities Films Ltd.

Описание фильма: Норман работает мелким клерком в огромном лондонском универмаге. Работа скучная, неинтересная, малооплачиваемая. Но есть один плюс - вокруг много красивых девушек, в одну из которых наш герой и влюбляется. А потом начинаются настоящие приключения. Оказывается, шайка преступников готовится ограбить универмаг…

Режиссер: Джон Пэдди Кастэйрс
Актеры: Норман Уисдом, Мойра Листер, Мегс Дженкинс, Джерри Десмонд, Маргарет Разерфорд, Лана Моррис, Майкл Бреннан, Майкл Уорд, Джоан Ингрэм, Сирил Чемберлен, Дерек Бонд, Джоан Симс, Джон Уоррен, Джон Уорвик, Эсма Кэннон, Стрингер Дэвис, Родди Хьюз, Иэн Уилсон…

Продолжительность: 01:22:08
Перевод: одноголосый закадровый
Автор рипа: KAA

Дата мировой премьеры: 14 декабря 1953

Видеокодек: XviD
Битрейт видео: ~2135 kbps
Размер кадра: 704x528
Качество видео: DVDRip
Аудио:
1: AC3, 2 ch, ~192 kbps – русский
2: AC3, 2 ch, ~192 kbps - английский

General
Complete name : mistEr.pitKin.01_trOublE.iN.stOrE.1953.DVDRip.avi
Format : AVI
Format/Info : Audio Video Interleave
File size : 1.45 GiB
Duration : 1h 22mn
Overall bit rate : 2 535 Kbps
Movie name : Mister.Pitkin.Neprijatnosti.V.Lavke.1953.XviD.DVDRip-KAA
Director : KAA
Genre : Comedy
Writing application : VirtualDubMod 1.5.10.2 (build 2540/release)
Original source form/Name : Movie
Copyright : KAA
Comment : KAA

Video
ID : 0
Format : MPEG-4 Visual
Format profile : Advanced Simple@L5
Format settings, BVOP : 2
Format settings, QPel : No
Format settings, GMC : No warppoints
Format settings, Matrix : Custom
Muxing mode : Packed bitstream
Codec ID : XVID
Codec ID/Hint : XviD
Duration : 1h 22mn
Bit rate : 2 137 Kbps
Width : 704 pixels
Height : 528 pixels
Display aspect ratio : 4:3
Frame rate : 25.000 fps
Color space : YUV
Chroma subsampling : 4:2:0
Bit depth : 8 bits
Scan type : Progressive
Compression mode : Lossy
Bits/(Pixel*Frame) : 0.230
Stream size : 1.23 GiB (84%)
Writing library : XviD 1.2.1 (UTC 2008-12-04)

Audio #1
ID : 1
Format : AC-3
Format/Info : Audio Coding 3
Mode extension : CM (complete main)
Codec ID : 2000
Duration : 1h 22mn
Bit rate mode : Constant
Bit rate : 192 Kbps
Channel(s) : 2 channels
Channel positions : Front: L R
Sampling rate : 48.0 KHz
Bit depth : 16 bits
Compression mode : Lossy
Stream size : 113 MiB (8%)
Alignment : Split accross interleaves
Interleave, duration : 40 ms (1.00 video frame)
Interleave, preload duration : 500 ms

Audio #2
ID : 2
Format : AC-3
Format/Info : Audio Coding 3
Mode extension : CM (complete main)
Codec ID : 2000
Duration : 1h 22mn
Bit rate mode : Constant
Bit rate : 192 Kbps
Channel(s) : 2 channels
Channel positions : Front: L R
Sampling rate : 48.0 KHz
Bit depth : 16 bits
Compression mode : Lossy
Stream size : 113 MiB (8%)
Alignment : Split accross interleaves
Interleave, duration : 40 ms (1.00 video frame)
Interleave, preload duration : 500 ms

Скриншоты:

Награды:
Британская академия, 1954 год:
Победитель (1):
• Самый многообещающий новичок (Норман Уисдом)

Рецензия с сайта КиНОПОиСК от Rukus :
Добро пожаловать в кино, мистер Питкин!

Этот фильм 1953 года открыл Британии и всему миру одного из самых ярких комиков 20 века — Нормана Уиздома. Незадачливый маленький человек, вечно попадающий в нелепые ситуации, но всегда непостижимым образом выходящий сухим из воды — этот образ есть в кинематографе любой страны. Достаточно вспомнить Паоло Вилладжо и его Фантоци, большинство ролей Луи де Фюнеса, ну и конечно Чарли Чаплина. В Великобритании же актером, примерившим на себя подобное амплуа, стал именно Норман Уиздом.

«Неприятности в лавке» принято считать первым фильмом из серии про похождения мистера Питкина. Хотя строго говоря, Питкином он станет только через несколько лет. А пока что главного героя зовут просто Норман. Он работает в универмаге, мечтает о повышении и тайно влюблен в продавщицу из соседнего отдела. Но однажды в их магазин приходит новый директор, отношения с которым сразу незалаживаются. Да еще и банда налетчиков готовит ограбление, о чем Норману случайно становится известно. Вот тут-то маленькому человеку и предстоит доказать, что он в одночасье может превратиться в героя и добиться руки любимой девушки.

Хотя сюжет наивен и прост и в конце нас конечно ожидает обязательный хэппи-энд, смотреть этот фильм все равно весело и приятно. А еще где-то в середине, главный герой отлично исполняет пару песен. Сначала я подумал, что это чья-то чужая запись, но после просмотра залез в интернет, и с удивлением обнаружил, что оказывается Норман Уиздом очень здорово пел, и даже записал несколько пластинок, так что исполнение его собственное. Вот такой вот был талантливый и разносторонний человек.

Сказать честно «Неприятности в лавке» — на мой взгляд, не самый смешной фильм про Питкина. В некоторых последующих частях юмор будет поискрометней. Но все равно просмотр оставляет исключительно приятные эмоции, так что рекомендую, особенно если вы неравнодушны к старому кинематографу.


К лучшему / One Good Turn (1955) DVDRip

#7

Русское название: К лучшему
Оригинальное название: One Good Turn
Год выхода: 1955
Страна: Великобритания
Жанр: комедия
Кинокомпания: Maurice Cowan Productions, Two Cities Films Ltd.

Описание фильма: Норман работает в сиротском приюте. Жизнь течет своим чередом до тех пор, попа председатель правления приюта не вознамерился закрыть учреждение, снести здание и на его месте построить фабрику. А что будет c детьми? Норман начинает действовать…

Режиссер: Джон Пэдди Кастэйрс
Актеры: Норман Уисдом, Джоан Райс, Ширли Абикайр, Тора Хёрд, Уильям Расселл, Джоан Ингрэм, Ричард Кэлдикот, Марджори Фендер, Кейт Гилман, Ноэль Хоулетт, Дэвид Херст, Харольд Каскет, Рики МакКалло, Энтони Грин, Джонатан Бэйли, Майкл Бальфур, Кеннет Фортескью, Фред Гриффитс, Люси Гриффитс, Перси Херберт, Фрейзер Хайнс, Фред Китчен мл., Артур Муллар, Грэм Старк, Иэн Уилсон…

Продолжительность: 01:28:38
Перевод: одноголосый закадровый
Автор рипа: KAA

Дата мировой премьеры: 4 января 1955

Видеокодек: XviD
Битрейт видео: ~1714 kbps
Размер кадра: 704x416
Качество видео: DVDRip
Аудио:
1: AC3, 2 ch, ~192 kbps – русский
2: AC3, 2 ch, ~192 kbps - английский

General
Complete name : mistEr.pitKin.02_onE.goOd.tUrn.1955.DVDRip.avi
Format : AVI
Format/Info : Audio Video Interleave
File size : 1.31 GiB
Duration : 1h 28mn
Overall bit rate : 2 114 Kbps
Movie name : Mister.Pitkin.K.Luchshemu.1955.XviD.DVDRip-KAA
Director : KAA
Genre : Comedy
Writing application : VirtualDubMod 1.5.10.2 (build 2540/release)
Original source form/Name : Movie
Copyright : KAA
Comment : KAA

Video
ID : 0
Format : MPEG-4 Visual
Format profile : Advanced Simple@L5
Format settings, BVOP : 2
Format settings, QPel : No
Format settings, GMC : No warppoints
Format settings, Matrix : Custom
Muxing mode : Packed bitstream
Codec ID : XVID
Codec ID/Hint : XviD
Duration : 1h 28mn
Bit rate : 1 715 Kbps
Width : 704 pixels
Height : 416 pixels
Display aspect ratio : 1.692
Frame rate : 25.000 fps
Color space : YUV
Chroma subsampling : 4:2:0
Bit depth : 8 bits
Scan type : Progressive
Compression mode : Lossy
Bits/(Pixel*Frame) : 0.234
Stream size : 1.06 GiB (81%)
Writing library : XviD 1.2.1 (UTC 2008-12-04)

Audio #1
ID : 1
Format : AC-3
Format/Info : Audio Coding 3
Mode extension : CM (complete main)
Codec ID : 2000
Duration : 1h 28mn
Bit rate mode : Constant
Bit rate : 192 Kbps
Channel(s) : 2 channels
Channel positions : Front: L R
Sampling rate : 48.0 KHz
Bit depth : 16 bits
Compression mode : Lossy
Stream size : 122 MiB (9%)
Alignment : Split accross interleaves
Interleave, duration : 40 ms (1.00 video frame)
Interleave, preload duration : 500 ms

Audio #2
ID : 2
Format : AC-3
Format/Info : Audio Coding 3
Mode extension : CM (complete main)
Codec ID : 2000
Duration : 1h 28mn
Bit rate mode : Constant
Bit rate : 192 Kbps
Channel(s) : 2 channels
Channel positions : Front: L R
Sampling rate : 48.0 KHz
Bit depth : 16 bits
Compression mode : Lossy
Stream size : 122 MiB (9%)
Alignment : Split accross interleaves
Interleave, duration : 40 ms (1.00 video frame)
Interleave, preload duration : 500 ms

Скриншоты:

Рецензия с сайта КиНОПОиСК от benobiwan :
Старая добрая комедия

Я вам сразу скажу- я поклонник комедий Уиздома. И поэтому этот фильм посмотрел с не меньшим удовольствием чем популярные «Мистер Питкин в тылу врага» или же «Мистер Питкин в больнице»

У фильма есть идея

И это радует. Идея добра и самоотверженности главного героя, заботы о детях.

У фильма есть свой особый юмор

Конечно, есть затянутые моменты, но в целом фильм смотрится весело и со вкусом. Одна только сцена в поезде чего стоит. А сцена с оркестром и дирижером «Игорем Петровичем» вообще напомнила старых добрых «Весёлых ребят»

Уиздом как всегда на высоте. Фильм хороший. Советую


Калиф на час / Man of the Moment (1955) DVDRip

#7

Русское название: Калиф на час
Оригинальное название: Man of the Moment
Год выхода: 1955
Страна: Великобритания
Жанр: комедия
Кинокомпания: Group Film Productions Limited

Описание фильма: Норман Питкин работает клерком в Министерстве иностранных дел. При официальной поездке в Женеву Питкин оказывается в самом центре международных интриг…

Режиссер: Джон Пэдди Кастэйрс
Актеры: Норман Уисдом, Лана Моррис, Белинда Ли, Джерри Десмонд, Карел Степанек, Гэрри Марш, Инья Те Виата, Эвелин Робертс, Виолет Фареброзер, Мартин Миллер, Юджин Декерс, Хью Мортон, Сирил Чемберлен, Лиза Гастони, Харольд Каскет, Беверли Брукс, Майкл Уорд, Дерек Сидни, Питер Тейлор, Джозеф Берманн, Джулия Арнелл, Сьюзэн Бомонт, Питер Брайант, Пегги Энн Клиффорд, Иван Крэйг, Дорин Доун, Альф Дин, Маргарет Даунс, Рут Даннинг, Эдвард Эванс, Филип Гилберт, Филип Харбен, Чарльз Хоутри, МакДональд Хобли, Брюс Сетон, Марианн Стоун, Шила Свит, Ронни Уолдман, Иэн Уилсон…

Продолжительность: 01:25:05
Перевод: многоголосый закадровый
Автор рипа: KAA

[imdb]tt0047298[/imdb] [kp]143734[/kp]

Дата мировой премьеры: 4 января 1955

Видеокодек: XviD
Битрейт видео: ~1975 kbps
Размер кадра: 704x512
Качество видео: DVDRip
Аудио:
1: AC3, 2 ch, ~192 kbps – русский
2: AC3, 2 ch, ~192 kbps - английский

General
Complete name : mistEr.pitKin.03_mAn.oF.thE.mOmEnt.1955.DVDRip.avi
Format : AVI
Format/Info : Audio Video Interleave
File size : 1.41 GiB
Duration : 1h 25mn
Overall bit rate : 2 374 Kbps
Movie name : Mister.Pitkin.Kalif.Na.Chas.1955.XviD.DVDRip-KAA
Director : KAA
Genre : Comedy
Writing application : VirtualDubMod 1.5.10.2 (build 2540/release)
Original source form/Name : Movie
Copyright : KAA
Comment : KAA

Video
ID : 0
Format : MPEG-4 Visual
Format profile : Advanced Simple@L5
Format settings, BVOP : 2
Format settings, QPel : No
Format settings, GMC : No warppoints
Format settings, Matrix : Custom
Muxing mode : Packed bitstream
Codec ID : XVID
Codec ID/Hint : XviD
Duration : 1h 25mn
Bit rate : 1 976 Kbps
Width : 704 pixels
Height : 512 pixels
Display aspect ratio : 1.375
Frame rate : 25.000 fps
Color space : YUV
Chroma subsampling : 4:2:0
Bit depth : 8 bits
Scan type : Progressive
Compression mode : Lossy
Bits/(Pixel*Frame) : 0.219
Stream size : 1.17 GiB (83%)
Writing library : XviD 1.2.1 (UTC 2008-12-04)

Audio #1
ID : 1
Format : AC-3
Format/Info : Audio Coding 3
Mode extension : CM (complete main)
Codec ID : 2000
Duration : 1h 25mn
Bit rate mode : Constant
Bit rate : 192 Kbps
Channel(s) : 2 channels
Channel positions : Front: L R
Sampling rate : 48.0 KHz
Bit depth : 16 bits
Compression mode : Lossy
Stream size : 117 MiB (8%)
Alignment : Split accross interleaves
Interleave, duration : 40 ms (1.00 video frame)
Interleave, preload duration : 500 ms

Audio #2
ID : 2
Format : AC-3
Format/Info : Audio Coding 3
Mode extension : CM (complete main)
Codec ID : 2000
Duration : 1h 25mn
Bit rate mode : Constant
Bit rate : 192 Kbps
Channel(s) : 2 channels
Channel positions : Front: L R
Sampling rate : 48.0 KHz
Bit depth : 16 bits
Compression mode : Lossy
Stream size : 117 MiB (8%)
Alignment : Split accross interleaves
Interleave, duration : 40 ms (1.00 video frame)
Interleave, preload duration : 500 ms

[align=center]Скриншоты:
[/align]
Рецензия с сайта КиНОПОиСК от zombion :
Оставайтесь на проводе.

Да я и так уже на нем…

Калиф на час (я люблю этот фильм)


Удивительно, но в 1955 году было выпущено сразу два фильма про мистера Питкина (или просто Нормана). Оба фильма снимал постоянный режиссер Уисдома, гениальный Джон Пэдди Кастэйрс. Первый фильм, который вышел в 1955 году назывался «К лучшему». Там Норман весь фильм возился с детьми, и картина получилась очень забавная. А в конце 1955 года вышел фильм под названием «Калиф на час».

В этом фильме Норман будет работать клерком в Министерстве иностранных дел. Так получается, что он должен будет поехать на одну конференцию (политическую) в другой город. А это значит, что его ждут новые приключения, которые могут рассмешить до слез. Нужно сказать, что это первый и последний фильм, где Норман будет как-то связан с политикой. Я вообще не люблю политические картины, но тут политика будет на втором плане, потому что Норман тут будет крушить все подряд, что встретится у него на пути (в переносном смысле, хотя…), и я смотрел этот фильм на одном (смешном) дыхании. Кстати его тут даже захотят убить, потому что он всегда лезет туда, куда не надо.

Помимо самого Уисдома в этом фильме можно заметить актера Джерри Десмонда, его герой часто пытался укротить Питкина во многих картинах. Ну и конечно в этом фильме главную женскую роль сыграла актриса Лана Моррис. Норман играл уже с ней в своем дебюте «Неприятности в лавке» и они там создали удивительный (легкий) дуэт. Поэтому в фильме «Калиф на час» они снова играют на какой-то непонятной (очень приятной) волне.

А еще в этом фильме Норман будет петь очень грустные (иногда смешные) песни. Как я уже говорил раньше, Норман обладает удивительным голосом и его фильмы стоит посмотреть уже только ради его музыкальных номеров. В этом фильме его песня в парке растрогала меня до слез. Комик Норман в очередной раз доказал, что раньше люди снимали гениальные картины. Поэтому я могу поставить только максимальную оценку. Смотрите добрые и смешные картины. Шедевр.

Спасибо.

P.S. Актриса Белинда Ли — настоящая красавица…


Мистер Питкин: Вверх тормашками / Up in the World (1956) DVDRip

#7

Русское название: Мистер Питкин: Вверх тормашками
Оригинальное название: Up in the World
Год выхода: 1956
Страна: Великобритания
Жанр: комедия
Кинокомпания: The Rank Organisation Film Productions Ltd.

Описание фильма: На этот раз Норман Питкин работает мойщиком окон в шикарном особняке. Однажды сына хозяев дома похищают бандиты. Однако они не учли, что окна в этом доме моет не кто-нибудь, а сам мистер Питкин!
Норману удается освободить мальчика, но тот в результате травмы головы теряет память, и когда приезжает полиция, незадачливого спасителя принимают за главного гангстера…

Режиссер: Джон Пэдди Кастэйрс
Актеры: Норман Уисдом, Морин Суонсон, Джерри Десмонд, Мишель Каридия, Колин Гордон, Эмброзин Филпоттс, Майкл Уорд, Джилл Диксон, Эдвин Стайлз, Хай Хэзелл, Уильям Лукас, Лайонел Джеффрис, Сирил Чемберлен, Майкл Бреннан, Эдвард Лесли, Хэмлин Бенсон, Эдвард Лекси, Томас Галлахер, Харольд Хамстер, Хезер Беннетт, Бернард Бресслоу, Кристофер Кук, Майкл Голден, Виолет Гулд, Фред Гриффитс, Иэн Хендри, Робин Рансон, Бет Роган, Эдмунд Уиллард, Иэн Уилсон…

Продолжительность: 01:26:46
Перевод: многоголосый закадровый
Автор рипа: KAA

Дата мировой премьеры: 8 декабря 1956

Видеокодек: XviD
Битрейт видео: ~1877 kbps
Размер кадра: 704x416
Качество видео: DVDRip
Аудио:
1: AC3, 2 ch, ~192 kbps – русский
2: AC3, 2 ch, ~192 kbps - английский

General
Complete name : mistEr.pitKin.04_uP.iN.thE.wOrld.1956.DVDRip.avi
Format : AVI
Format/Info : Audio Video Interleave
File size : 1.38 GiB
Duration : 1h 26mn
Overall bit rate : 2 277 Kbps
Movie name : Mister.Pitkin.Vverkh.Tormashkami.1956.XviD.DVDRip-KAA
Director : KAA
Genre : Comedy
Writing application : VirtualDubMod 1.5.10.2 (build 2540/release)
Original source form/Name : Movie
Copyright : KAA
Comment : KAA

Video
ID : 0
Format : MPEG-4 Visual
Format profile : Advanced Simple@L5
Format settings, BVOP : 1
Format settings, QPel : No
Format settings, GMC : No warppoints
Format settings, Matrix : Custom
Codec ID : XVID
Codec ID/Hint : XviD
Duration : 1h 26mn
Bit rate : 1 879 Kbps
Width : 704 pixels
Height : 416 pixels
Display aspect ratio : 1.692
Frame rate : 25.000 fps
Color space : YUV
Chroma subsampling : 4:2:0
Bit depth : 8 bits
Scan type : Progressive
Compression mode : Lossy
Bits/(Pixel*Frame) : 0.257
Stream size : 1.14 GiB (82%)
Writing library : XviD 1.2.1 (UTC 2008-12-04)

Audio #1
ID : 1
Format : AC-3
Format/Info : Audio Coding 3
Mode extension : CM (complete main)
Codec ID : 2000
Duration : 1h 26mn
Bit rate mode : Constant
Bit rate : 192 Kbps
Channel(s) : 2 channels
Channel positions : Front: L R
Sampling rate : 48.0 KHz
Bit depth : 16 bits
Compression mode : Lossy
Stream size : 119 MiB (8%)
Alignment : Split accross interleaves
Interleave, duration : 40 ms (1.00 video frame)
Interleave, preload duration : 500 ms

Audio #2
ID : 2
Format : AC-3
Format/Info : Audio Coding 3
Mode extension : CM (complete main)
Codec ID : 2000
Duration : 1h 26mn
Bit rate mode : Constant
Bit rate : 192 Kbps
Channel(s) : 2 channels
Channel positions : Front: L R
Sampling rate : 48.0 KHz
Bit depth : 16 bits
Compression mode : Lossy
Stream size : 119 MiB (8%)
Alignment : Split accross interleaves
Interleave, duration : 40 ms (1.00 video frame)
Interleave, preload duration : 500 ms

Скриншоты:

Рецензия с сайта КиНОПОиСК от zombion :
И по газону не ходить!!!

Мистер Питкин: Вверх тормашками (я люблю этот фильм)


Перед нами очередной совместный фильм английского актера Нормана Уисдома и английского режиссера Джона Пэдди Кастэйрса. Фильм вышел в далеком 1956 году. Для английского актера Нормана Уисдома данный фильм стал серединой творчества. Он уже окончательно зафиксировал своего фирменного персонажа мистера Питкина. Норман Уисдом перешел уже на новый уровень, и теперь его актерская игра была просто идеальной.

В этом фильме наш добрый неудачник мистер Питкин случайно устроился работать мойщиком окон в один богатый особняк. Так получается, что этим своим поступком он перепутал все планы грабителей, которые послали в этот особняк своего человека, чтобы тот смог устроится мойщиком окон. Это им нужно для того, чтобы похитить сына богатой леди с целью выкупа. Но вы понимаете, что мистера Питкина просто невозможно опередить и он уже пытается мыть окна в этом особняке, а это значит, что теперь все будет по-другому. Ждите больших погромов.

Конечно, издалека может показаться, что сценарий этого фильма стандартен для англичан. Главный герой даже не подозревает, что происходит вокруг него. Но на самом деле фильм получился очень ярким. Норман Уисдом в этом фильме просто прыгнул выше своей головы, и смог рассмешить свою публику просто до слез. За его гримасами и движениями просто интересно наблюдать. Могу сказать, что я от фильма получил большое удовольствие.

И еще хотел сказать насчет юмора в фильме. Вы знаете, я вот смотрю современные комедии, и мне становится очень грустно, потому что сейчас все комедии стали пошлыми, а это говорит уже о деградации народа. Просто посмотрите этот фильм. Я не говорю, что в этом фильме юмор идеален. В некоторых моментах юмор можно назвать грубым, но никогда его нельзя назвать пошлым. Великий комик Норман Уисдом никогда не играл в пошлых картинах. Поверьте, это дорогого стоит.

Я хочу посоветовать посмотреть этот фильм всем фанатам английского классического кинематографа. Перед нами настоящий шедевр. Мистера Питкина можно не любить, но настоящие киноманы просто обязаны знать такие картины. Рекомендую.

Спасибо.


Мистер Питкин в тылу врага / The Square Peg (1959) DVDRip

#7

Русское название: Мистер Питкин в тылу врага
Оригинальное название: The Square Peg
Год выхода: 1959
Страна: Великобритания
Жанр: комедия
Кинокомпания: The Rank Organisation Film Productions Ltd.

Описание фильма: В результате нелепой ошибки рядовой стройбата Питкин забрасывается с отрядом десантников в тыл противника. Преодолев растерянность и воспользовавшись своим сходством с немецким генералом, Питкин спасает попавших в плен друзей и возвращается домой настоящим героем…

Режиссер: Джон Пэдди Кастэйрс
Актеры: Норман Уисдом, Хонор Блэкмен, Эдвард Чэпман, Кэмпбелл Сингер, Хэтти Жак, Брайан Ворф, Теренс Александр, Джон Уорвик, Арнольд Белл, Андре Маранн, Виктор Бомонт, Фрэнк Уильямс, Джон Дж. Хеллер, Ричард Марнер, Мартин Бодди, Харольд Гудвин, Фред Гриффитс, Виктор Маддерн, Шила МакГибон, Оливер Рид, Хэйзел Саттон, Ричард Уорнер…

Продолжительность: 01:25:50
Перевод: дублированный
Автор рипа: KAA

Дата мировой премьеры: 4 января 1959

Видеокодек: XviD
Битрейт видео: ~1824 kbps
Размер кадра: 704x400
Качество видео: DVDRip
Аудио:
1: AC3, 2 ch, ~192 kbps – русский
2: AC3, 2 ch, ~192 kbps - английский

General
Complete name : mistEr.pitKin.05_thE.squArE.pEg.1959.DVDRip.avi
Format : AVI
Format/Info : Audio Video Interleave
File size : 1.33 GiB
Duration : 1h 25mn
Overall bit rate : 2 224 Kbps
Movie name : Mister.Pitkin.V.Tylu.Vraga.1958.XviD.DVDRip-KAA
Director : KAA
Genre : Comedy
Writing application : VirtualDubMod 1.5.10.2 (build 2540/release)
Original source form/Name : Movie
Copyright : KAA
Comment : KAA

Video
ID : 0
Format : MPEG-4 Visual
Format profile : Advanced Simple@L5
Format settings, BVOP : 1
Format settings, QPel : No
Format settings, GMC : No warppoints
Format settings, Matrix : Custom
Codec ID : XVID
Codec ID/Hint : XviD
Duration : 1h 25mn
Bit rate : 1 825 Kbps
Width : 704 pixels
Height : 400 pixels
Display aspect ratio : 16:9
Frame rate : 25.000 fps
Color space : YUV
Chroma subsampling : 4:2:0
Bit depth : 8 bits
Scan type : Progressive
Compression mode : Lossy
Bits/(Pixel*Frame) : 0.259
Stream size : 1.09 GiB (82%)
Writing library : XviD 1.2.1 (UTC 2008-12-04)

Audio #1
ID : 1
Format : AC-3
Format/Info : Audio Coding 3
Mode extension : CM (complete main)
Codec ID : 2000
Duration : 1h 25mn
Bit rate mode : Constant
Bit rate : 192 Kbps
Channel(s) : 2 channels
Channel positions : Front: L R
Sampling rate : 48.0 KHz
Bit depth : 16 bits
Compression mode : Lossy
Stream size : 118 MiB (9%)
Alignment : Split accross interleaves
Interleave, duration : 40 ms (1.00 video frame)
Interleave, preload duration : 500 ms

Audio #2
ID : 2
Format : AC-3
Format/Info : Audio Coding 3
Mode extension : CM (complete main)
Codec ID : 2000
Duration : 1h 25mn
Bit rate mode : Constant
Bit rate : 192 Kbps
Channel(s) : 2 channels
Channel positions : Front: L R
Sampling rate : 48.0 KHz
Bit depth : 16 bits
Compression mode : Lossy
Stream size : 118 MiB (9%)
Alignment : Split accross interleaves
Interleave, duration : 40 ms (1.00 video frame)
Interleave, preload duration : 500 ms

Скриншоты:

Рецензия с сайта КиНОПОиСК от zombion :
- Шагай в ногу!
- Сам шагай! Я штатский…

Мистер Питкин в тылу врага (я люблю этот фильм)


Английский режиссер Джон Пэдди Кастэйрс очень часто сотрудничал с актером Норманом Уисдомом. Вместе они сделали очень много настоящих шедевров мирового кинематографа. Перед нами последний совместный их проект. К сожалению после этого фильма их дороги разойдутся. Я бы не стал говорить, что это самый лучший фильм про Питкина, но я могу точно сказать, что это самый популярный фильм Нормана Уисдома. Этот фильм стал его визитной карточкой у нас в России. Просто русские люди всегда любили смотреть фильмы, связанные с войной, а этот фильм имеет непосредственное отношение к войне.

В этом фильме наш герой Питкин работает в конторе, которая ремонтирует дороги. Так получилось, что его новый заказ находится рядом с военным лагерем. Конечно, Питкин будет мешаться военным со своим забавным начальником, который постоянно пытается дозвониться до мэра и нажаловаться ему на военных. Но военные решают им отомстить и призывают их на военную службу, а вот тут начинается самое интересное. Мистера Питкина и его начальника ждут невероятные приключения.

Данный фильм вышел 50 лет назад, а до сих пор смотрится на одном дыхании. За приключениями Питкина очень интересно смотреть. Потому что раньше такие фильмы делались с любовью, а фильмы, которые делают с любовью навсегда останутся в истории кинематографа. В этом фильме Норман Уисдом как обычно играет растяпу с очень добрыми глазами. Конечно, он все будет делать неуклюже и в этом его шарм. На него просто невозможно сердится, а вот смеяться над ним всегда охота. Потому что даже когда он просто стоит и смотрит, он уже вызывает улыбку. Это говорит о том, что актер Норман Уисдом просто идеально владел своим героем и был гениальным комиком.

Когда я смотрел этот фильм, я увидел в нем другой фильм под названием «Великий диктатор» с Чарли Чаплином в главной роли. Это не простое подражание, а это просто дань уважения великому комику. В фильме «Великий диктатор» Чарли Чаплин играет две роли. В данном фильме Норман Уисдом тоже играет две роли. Конечно, многие будут сравнивать эти фильмы, но я советую не сравнивать, а просто насладится двумя картинами.

Перед нами настоящий классический английский шедевр. Я поставлю максимальную оценку этому фильму и навсегда заберу его в коллекцию. А вам советую обязательно посмотреть этот фильм, если вы его еще не видели. Только обязательно смотрите этот фильм в переводе легендарного актера Георгия Вицина. Будет очень смешно. Рекомендую.

Спасибо.


Мистер Питкин на эстраде / Follow a Star (1959) DVDRip

#7

Русское название: Мистер Питкин на эстраде
Оригинальное название: Follow a Star
Год выхода: 1959
Страна: Великобритания
Жанр: комедия
Кинокомпания: The Rank Organisation Film Productions Ltd.

Описание фильма: Любимец зрителей мистер Питкин учится петь. Мечта о сцене заводит его в логово коршунов шоу-бизнеса…

Режиссер: Роберт Эшер
Актеры: Норман Уисдом, Джун Лэверик, Джерри Десмонд, Хэтти Жак, Ричард Уоттис, Джон Ле Мезюрье, Сидни Тэфлер, Фенелла Филдинг, Чарльз Хеслоп, Джо Мелиа, Рон Муди, Ричард Кэлдикот, Пегги Энн Клиффорд, Джесс Конрад, Пэт Кумбс, Дик Эмери, Чарльз Грей, Глин Хьюстон, Дилис Лэй, Эди Мартин, Роберт Рэглан, Джордж Родерик, Рита Ройс, Марианн Стоун, Лаура Турлоу, Шири Уинтон…

Продолжительность: 01:39:31
Перевод: многоголосый закадровый
Автор рипа: KAA

Дата мировой премьеры: 15 декабря 1959

Видеокодек: XviD
Битрейт видео: ~1698 kbps
Размер кадра: 704x528
Качество видео: DVDRip
Аудио:
1: AC3, 2 ch, ~192 kbps – русский
2: AC3, 2 ch, ~192 kbps - английский

General
Complete name : mistEr.pitKin.06_fOllOw.a.stAr.1959.DVDRip.avi
Format : AVI
Format/Info : Audio Video Interleave
File size : 1.46 GiB
Duration : 1h 39mn
Overall bit rate : 2 098 Kbps
Movie name : Mister.Pitkin.Na.Ehstrade.(Norman.Wisdom.Follow.A.Star).1959.XviD.DVDRip-KAA
Director : KAA
Genre : Comedy
Writing application : VirtualDubMod 1.5.10.2 (build 2540/release)
Original source form/Name : Movie
Copyright : KAA
Comment : KAA

Video
ID : 0
Format : MPEG-4 Visual
Format profile : Advanced Simple@L5
Format settings, BVOP : 1
Format settings, QPel : No
Format settings, GMC : No warppoints
Format settings, Matrix : Custom
Codec ID : XVID
Codec ID/Hint : XviD
Duration : 1h 39mn
Bit rate : 1 699 Kbps
Width : 704 pixels
Height : 528 pixels
Display aspect ratio : 4:3
Frame rate : 25.000 fps
Color space : YUV
Chroma subsampling : 4:2:0
Bit depth : 8 bits
Scan type : Progressive
Compression mode : Lossy
Bits/(Pixel*Frame) : 0.183
Stream size : 1.18 GiB (81%)
Writing library : XviD 1.2.1 (UTC 2008-12-04)

Audio #1
ID : 1
Format : AC-3
Format/Info : Audio Coding 3
Mode extension : CM (complete main)
Codec ID : 2000
Duration : 1h 39mn
Bit rate mode : Constant
Bit rate : 192 Kbps
Channel(s) : 2 channels
Channel positions : Front: L R
Sampling rate : 48.0 KHz
Bit depth : 16 bits
Compression mode : Lossy
Stream size : 137 MiB (9%)
Alignment : Split accross interleaves
Interleave, duration : 40 ms (1.00 video frame)
Interleave, preload duration : 500 ms

Audio #2
ID : 2
Format : AC-3
Format/Info : Audio Coding 3
Mode extension : CM (complete main)
Codec ID : 2000
Duration : 1h 39mn
Bit rate mode : Constant
Bit rate : 192 Kbps
Channel(s) : 2 channels
Channel positions : Front: L R
Sampling rate : 48.0 KHz
Bit depth : 16 bits
Compression mode : Lossy
Stream size : 137 MiB (9%)
Alignment : Split accross interleaves
Interleave, duration : 40 ms (1.00 video frame)
Interleave, preload duration : 500 ms

Скриншоты:

Рецензия с сайта КиНОПОиСК от zombion :
Джуди!!!

Мистер Питкин на эстраде (я люблю этот фильм)


Когда английский режиссер Джон Пэдди Кастэйрс не снимал фильмы про мистера Питкина, вместо него это делал другой английский режиссер Роберт Эшер. Я не буду сравнивать их фильмы, потому что каждый из этих режиссеров вкладывал что-то свое в Питкина и их картины до сих пор интересно смотреть. Для Роберта Эшера данный фильм стал дебютом в режиссуре. У многих режиссеров дебюты получаются неудачными, но Роберт Эшер снял очень сильный фильм и я даже могу сказать, что это его, возможно, самый лучший фильм.

В этом фильме наш веселый герой с очень грустными глазами работает в прачечной. Мистер Питкин чистит и сушит одежду для разных людей. Однажды к нему в лавку приходит известный эстрадный певец. Он приглашает Питкина к себе на концерт. Конечно, лучше бы он этого не делал, потому что наш Питкин никогда не изменится. Он случайно сделает так, что сорвет выступление своего кумира и сам споет лучше него. Позже мистера Питкина втянут в одну авантюру, но это уже нужно смотреть своими глазами.

Вообще пересказывать сюжеты мистера Питкина просто невозможно, потому что его нужно именно смотреть. Норман Уисдом всегда был отличным лицедеем. Вообще он всегда меня веселил, а именно в этом фильме он меня растрогал до слез. Мне кажется это самый грустный фильм про мистера Питкина, и он немного похож на фильм Чарли Чаплина «Огни большого города». Только в фильме Чаплина главная героиня не могла видеть, а в фильме Эшера девушка не могла ходить. Сразу видно, что Роберт Эшер делал свой дебют, смотря на фильм Чаплина. Это дорогого стоит.

Фильм конечно больше похож на комедийную мелодраму, чем на чистую комедию. В этом фильме есть столько трогательных и грустных моментов одновременно, что уже только за них я могу поставить максимальную оценку фильму. Никогда не забуду момент, когда мистер Питкин забегает в магазин чтобы купить цветы. Он берет букет, но ему дают чек с суммой и он откладывает этот букет в сторону. Он берет один маленький цветочек, заворачивает в бумагу и бежит к своей девушке Джуди, чтобы подарить один цветок. Он отдает эту бумагу Джуди, и она разворачивает ее, а внутри ничего нет. Цветок выпал, когда Питкин бежал по дороге. Посмотрите в эту секунда на Нормана. Посмотрите на его руки и глаза. Столько много разочарования и грусти в них. Он говорит Джуди, что цветок выпал. Это душераздирающая сцена, просто слезы на глазах наворачивались, и таких моментов будет очень много.

А еще в этом фильме Норман Уисдом будет часто петь песни, и я могу вам сказать, делает он это просто великолепно. Я честно даже не думал, что у него такой приятный голос. Всем фанатам мистера Питкина нужно обязательно посмотреть данный фильм. Мне кажется, возможно, это самый лучший фильм с участием Нормана Уисдома. Шедевр.

Спасибо.


Мистер Питкин: Порода бульдог / The Bulldog Breed (1960) DVDRip

#7

Русское название: Мистер Питкин: Порода бульдог
Оригинальное название: The Bulldog Breed
Год выхода: 1960
Страна: Великобритания
Жанр: комедия
Кинокомпания: The Rank Organisation Film Productions Ltd.

Описание фильма: Любой человек достоин любви. Даже самый никчемный и невезучий. Помощник бакалейщика Норман очень хотел любить и быть любимым, но… со вторым пунктом ему явно не повезло. От отчаяния и безысходности он вербуется на службу в Военно-Морской Флот Ее Величества. Тут-то и начинается самое интересное…

Режиссер: Роберт Эшер
Актеры: Норман Уисдом, Майкл Кейн, Иэн Хантер, Дэвид Лодж, Роберт Эркарт, Эдвард Чэпман, Эдди Бирн, Питер Джонс, Джон Ле Мезюрье, Теренс Александр, Сидни Тэфлер, Брайан Аултон, Харольд Гудвин, Джонни Бриггс, Фрэнк Уильямс, Джо Робинсон, Лиз Фрайзер, Пенни Морелл, Клер Гордон, Джулии Ширинг, Леонард Сакс, Глин Хьюстон, Джон Арнатт, Сирил Чемберлен, Ларри Дэнн, Роберт Десмонд, Шила Хэнкок, Розамунд Лесли, Брайан Прингл, Оливер Рид, Уильям Роуч, Энтони Сагар, Энн Скотт…

Продолжительность: 01:33:44
Перевод: одноголосый закадровый
Автор рипа: KAA

[imdb]tt0053683[/imdb] [kp]17545[/kp]

Дата мировой премьеры: 13 декабря 1960

Видеокодек: XviD
Битрейт видео: ~1827 kbps
Размер кадра: 704x528
Качество видео: DVDRip
Аудио:
1: AC3, 2 ch, ~192 kbps – русский
2: AC3, 2 ch, ~192 kbps - английский

General
Complete name : mistEr.pitKin.07_thE.bUlldOg.breEd.1960.DVDRip.avi
Format : AVI
Format/Info : Audio Video Interleave
File size : 1.46 GiB
Duration : 1h 33mn
Overall bit rate : 2 227 Kbps
Movie name : Mister.Pitkin.Poroda.Buldog.1960.XviD.DVDRip-KAA
Director : KAA
Genre : Comedy
Writing application : VirtualDubMod 1.5.10.2 (build 2540/release)
Original source form/Name : Movie
Copyright : KAA
Comment : KAA

Video
ID : 0
Format : MPEG-4 Visual
Format profile : Advanced Simple@L5
Format settings, BVOP : 1
Format settings, QPel : No
Format settings, GMC : No warppoints
Format settings, Matrix : Custom
Codec ID : XVID
Codec ID/Hint : XviD
Duration : 1h 33mn
Bit rate : 1 828 Kbps
Width : 704 pixels
Height : 528 pixels
Display aspect ratio : 4:3
Frame rate : 25.000 fps
Color space : YUV
Chroma subsampling : 4:2:0
Bit depth : 8 bits
Scan type : Progressive
Compression mode : Lossy
Bits/(Pixel*Frame) : 0.197
Stream size : 1.20 GiB (82%)
Writing library : XviD 1.2.1 (UTC 2008-12-04)

Audio #1
ID : 1
Format : AC-3
Format/Info : Audio Coding 3
Mode extension : CM (complete main)
Codec ID : 2000
Duration : 1h 33mn
Bit rate mode : Constant
Bit rate : 192 Kbps
Channel(s) : 2 channels
Channel positions : Front: L R
Sampling rate : 48.0 KHz
Bit depth : 16 bits
Compression mode : Lossy
Stream size : 129 MiB (9%)
Alignment : Split accross interleaves
Interleave, duration : 40 ms (1.00 video frame)
Interleave, preload duration : 500 ms

Audio #2
ID : 2
Format : AC-3
Format/Info : Audio Coding 3
Mode extension : CM (complete main)
Codec ID : 2000
Duration : 1h 33mn
Bit rate mode : Constant
Bit rate : 192 Kbps
Channel(s) : 2 channels
Channel positions : Front: L R
Sampling rate : 48.0 KHz
Bit depth : 16 bits
Compression mode : Lossy
Stream size : 129 MiB (9%)
Alignment : Split accross interleaves
Interleave, duration : 40 ms (1.00 video frame)
Interleave, preload duration : 500 ms

Скриншоты:

Рецензия с сайта КиНОПОиСК от zombion :
Вон там пропустили!

Мистер Питкин: Порода бульдог (я люблю этот фильм)


После того как английский режиссер Роберт Эшер снял свою дебютную картину в 1959 году под названием «Мистер Питкин на эстраде», прошел всего лишь один год и на экраны вышел другой совместный фильм Нормана Уисдома и Роберта Эшера. Не сказать, что фильм произвел фурор на поклонников мистера Питкина, но я могу сказать, что перед нами точно не самая худшая часть про похождения мистера Питкина.

В этом фильме наш герой мистер Питкин развозит разные товары на своей маленькой лодочке. Однажды девушка, в которую он влюблен, говорит ему, чтобы он ушел из ее жизни. В отчаянии мистер Питкин пытается покончить жизнью, но его спасает моряк, который ему говорит, что все девушки просто влюблены в моряков. Недолго думая, мистер Питкин идет служить на военный корабль. И вот тут начинается самое интересное.

Сразу становится уже понятно, что будет дальше, а дальше будет полный хаос на этом корабле. Потому что куда бы ни пришел мистер Питкин, везде будет настоящий бардак. Причем он будет его совершать абсолютно неосознанно. Естественно за всеми его поступками будет очень интересно наблюдать. В этом фильме очень много веселых моментов и глупых ситуаций. Норман Уисдом всегда умел развеселить своих зрителей.

Конечно это не самый смешной фильм про Питкина, но посмотреть его один раз с удовольствием вполне можно. Этот фильм делался добрыми руками. Роберт Эшер уже с первого своего фильма показал, что он очень одаренный режиссер. Ну а про Нормана Уисдома даже говорить не надо, этот актер обладает большой харизмой, и смотреть на его актерскую игру было всегда приятно.

Сейчас таких фильмов больше не снимают. Даже английский кинематограф стал чересчур пошлым, а раньше в Англии снимались очень хорошие комедии. Данный фильм подтверждает мои слова. Всем фанатам мистера Питкина рекомендую этот фильм к просмотру. Шедевр.

Спасибо.


Мистер Питкин: Девушка на борту / The Girl on the Boat (1961) DVDRip

#7

Русское название: Мистер Питкин: Девушка на борту
Оригинальное название: The Girl on the Boat
Год выхода: 1961
Страна: Великобритания
Жанр: комедия
Кинокомпания: Knightsbridge Films

Описание фильма: Главные события этой комедии разворачиваются на борту трансатлантического лайнера, идущего из Нового Света в Европу. В Америке Сэма Марлоу постигла неудача. Его зловредная тетка отказала любимому племяннику в финансовой помощи. Во время путешествия Сэм знакомится с очаровательной Билли, и забывает обо всех неприятностях. Но приключения только начинаются…

Режиссер: Генри Каплан
Актеры: Норман Уисдом, Милисент Мартин, Ричард Брирс, Филип Лок, Шила Хэнкок, Эфин Сейлер, Бернард Криббинс, Ноэл Уиллмен, Реджинальд Бекуив, Тимоти Бейтсон, Питер Булл, Мартин Вилдек, Уильям Шервуд, Пейшнс Колльер, Джорджина Куксон, Дик Бентли, Рональд Фрайзер, Гарри Локк…

Продолжительность: 01:29:16
Перевод: одноголосый закадровый
Автор рипа: KAA

Видеокодек: XviD
Битрейт видео: ~1872 kbps
Размер кадра: 704x448
Качество видео: DVDRip
Аудио:
1: AC3, 2 ch, ~192 kbps – русский
2: AC3, 2 ch, ~192 kbps - английский

General
Complete name : mistEr.pitKin.08_thE.giRl.oN.thE.boAt.1961.DVDRip.avi
Format : AVI
Format/Info : Audio Video Interleave
File size : 1.46 GiB
Duration : 1h 29mn
Overall bit rate : 2 336 Kbps
Movie name : Mister.Pitkin.Devushka.Na.Bortu.1961.XviD.DVDRip-KAA
Director : KAA
Genre : Comedy
Writing application : VirtualDubMod 1.5.10.2 (build 2540/release)
Original source form/Name : Movie
Copyright : KAA
Comment : KAA

Video
ID : 0
Format : MPEG-4 Visual
Format profile : Advanced Simple@L5
Format settings, BVOP : 1
Format settings, QPel : No
Format settings, GMC : No warppoints
Format settings, Matrix : Custom
Codec ID : XVID
Codec ID/Hint : XviD
Duration : 1h 29mn
Bit rate : 1 873 Kbps
Width : 704 pixels
Height : 448 pixels
Display aspect ratio : 1.571
Frame rate : 25.000 fps
Color space : YUV
Chroma subsampling : 4:2:0
Bit depth : 8 bits
Scan type : Progressive
Compression mode : Lossy
Bits/(Pixel*Frame) : 0.238
Stream size : 1.17 GiB (80%)
Writing library : XviD 1.2.1 (UTC 2008-12-04)

Audio #1
ID : 1
Format : AC-3
Format/Info : Audio Coding 3
Mode extension : CM (complete main)
Codec ID : 2000
Duration : 1h 29mn
Bit rate mode : Constant
Bit rate : 192 Kbps
Channel(s) : 2 channels
Channel positions : Front: L R
Sampling rate : 48.0 KHz
Bit depth : 16 bits
Compression mode : Lossy
Stream size : 123 MiB (8%)
Alignment : Split accross interleaves
Interleave, duration : 40 ms (1.00 video frame)
Interleave, preload duration : 500 ms

Audio #2
ID : 2
Format : AC-3
Format/Info : Audio Coding 3
Mode extension : CM (complete main)
Codec ID : 2000
Duration : 1h 29mn
Bit rate mode : Constant
Bit rate : 256 Kbps
Channel(s) : 2 channels
Channel positions : Front: L R
Sampling rate : 48.0 KHz
Bit depth : 16 bits
Compression mode : Lossy
Stream size : 163 MiB (11%)
Alignment : Split accross interleaves
Interleave, duration : 40 ms (1.00 video frame)
Interleave, preload duration : 500 ms

Скриншоты:

Рецензия с сайта КиНОПОиСК от zombion :
Это не Питкин…

Мистер Питкин: Девушка на борту (я люблю этот фильм)


Откровенно говоря, я не считаю этот фильм шедевром. Я могу даже сказать, что этот фильм мне не нравится. Просто так получилось, что я хотел написать про все фильмы, где присутствует герой Питкин, и данный фильм я посмотрел позже всех остальных картин. Я просто хочу нормально попрощаться с моим любимым героем, поэтому моя оценка будет максимальная, но она, можно сказать, состоит из других картин. Итак…

В этом фильме я сразу заметил подвох, потому что все картины про Питкина снимались на студии «Rank Organisation», а данный фильм делали при поддержке «United Artists». Один из основателей этой студии был Чарльз Чаплин. А еще все фильмы про Питкина снимал режиссер Джон Пэдди Кастэйрс, ну а потом Роберт Эшер. А данный фильм снимал Генри Каплан (кто это?). И в этом фильме главного героя зовут Сэм!

Поэтому если вы хотите посмотреть настоящего Питкина, то смотрите другие картины с Норманом Уисдомом, а этот фильм можно просто назвать «Девушка на борту». Практически весь фильм актер Норман Уисдом будет играть такого чопорного англичанина, который однажды влюбится в блондинку на корабле и будет весь фильм к ней приставать. В фильме очень мало смешных моментов, а вот скучных будет много. Этот фильм можно назвать полностью разговорным (и в этом его главная ошибка), но актер Норман Уисдом известен был всегда тем, что мог куда-нибудь свалится или скорчить смешную гримасу, поэтому можете сами уже судить о качестве данного фильма. Уисдом тут будет весь фильм просто раздражать. Среди всех работ Уисдома (про Питкина) многие зрители обходят стороной именно этот фильм.

Это мой последний отзыв на актера Нормана Уисдома и мне немного грустно, что я заканчиваю на такой отрицательной ноте, но я могу вам сказать, что Норман Уисдом гениальный лицедей и невероятно-сильный комик. В своих лучших картинах (Неприятности в лавке, Питкин в больнице, Питкин вверх тормашками, Ранняя пташка и др.) он смешил так сильно, что все остальные комики во главе с моим любимым Чарли Чаплином могли только ему позавидовать. Я люблю этого англичанина с корявой ухмылкой, и всегда буду любить.

Спасибо.


В ногу / On the Beat (1962) DVDRip

#7

Русское название: В ногу
Оригинальное название: On the Beat
Год выхода: 1962
Страна: Великобритания
Жанр: комедия
Кинокомпания: The Rank Organisation Film Productions Ltd.

Описание фильма: Норман хочет пойти по стопам отца и тоже стать полицейским, но проваливает вступительные тесты. Тем не менее, однажды он достает старую униформу отца и, надев ее, изображает бывалого полицейского. В результате — хаос, который мог вызвать только Питкин…

Режиссер: Роберт Эшер
Актеры: Норман Уисдом, Дженнифер Джейн, Рэймонд Хантли, Дэвид Лодж, Эсма Кэннон, Эрик Баркер, Элинор Саммерфилд, Ронни Стивенс, Теренс Александр, Морис Кауфман, Дилис Лэй, Джордж Пэстелл, Джек Уотсон, Кэмпбелл Сингер, Лайонел Мартон, Роберт Ритти, Мария Лоуренс, Пегги Энн Клиффорд, Жан Обри, Монте Лэндис, Марио Фабрици, Альфред Бёрк, Фредерик Эбботт, Джон Блайт, Сирил Чемберлен, Хетер Доунхам, Фред Гриффитс, Тутте Лемков, Ларри Мартин, Стэнли Морган, Джулиан Орхард, Лиза Пейдж, Анита Шарп-Болстер, Ларри Тейлор, Валерии Ван Ост, Алистер Уильямсон…

Продолжительность: 01:41:27
Перевод: одноголосый закадровый
Автор рипа: KAA

Дата мировой премьеры: 11 декабря 1962

Видеокодек: XviD
Битрейт видео: ~1658 kbps
Размер кадра: 704x400
Качество видео: DVDRip
Аудио:
1: AC3, 2 ch, ~192 kbps – русский
2: AC3, 2 ch, ~192 kbps - английский

General
Complete name : mistEr.pitKin.09_oN.thE.beAt.1962.DVDRip.avi
Format : AVI
Format/Info : Audio Video Interleave
File size : 1.46 GiB
Duration : 1h 41mn
Overall bit rate : 2 057 Kbps
Movie name : Mister.Pitkin.V.Nogu.1962.XviD.DVDRip-KAA
Director : KAA
Genre : Comedy
Writing application : VirtualDubMod 1.5.10.2 (build 2540/release)
Original source form/Name : Movie
Copyright : KAA
Comment : KAA

Video
ID : 0
Format : MPEG-4 Visual
Format profile : Advanced Simple@L5
Format settings, BVOP : 1
Format settings, QPel : No
Format settings, GMC : No warppoints
Format settings, Matrix : Custom
Codec ID : XVID
Codec ID/Hint : XviD
Duration : 1h 41mn
Bit rate : 1 659 Kbps
Width : 704 pixels
Height : 400 pixels
Display aspect ratio : 16:9
Frame rate : 25.000 fps
Color space : YUV
Chroma subsampling : 4:2:0
Bit depth : 8 bits
Scan type : Progressive
Compression mode : Lossy
Bits/(Pixel*Frame) : 0.236
Stream size : 1.18 GiB (81%)
Writing library : XviD 1.2.1 (UTC 2008-12-04)

Audio #1
ID : 1
Format : AC-3
Format/Info : Audio Coding 3
Mode extension : CM (complete main)
Codec ID : 2000
Duration : 1h 41mn
Bit rate mode : Constant
Bit rate : 192 Kbps
Channel(s) : 2 channels
Channel positions : Front: L R
Sampling rate : 48.0 KHz
Bit depth : 16 bits
Compression mode : Lossy
Stream size : 139 MiB (9%)
Alignment : Split accross interleaves
Interleave, duration : 40 ms (1.00 video frame)
Interleave, preload duration : 500 ms

Audio #2
ID : 2
Format : AC-3
Format/Info : Audio Coding 3
Mode extension : CM (complete main)
Codec ID : 2000
Duration : 1h 41mn
Bit rate mode : Constant
Bit rate : 192 Kbps
Channel(s) : 2 channels
Channel positions : Front: L R
Sampling rate : 48.0 KHz
Bit depth : 16 bits
Compression mode : Lossy
Stream size : 139 MiB (9%)
Alignment : Split accross interleaves
Interleave, duration : 40 ms (1.00 video frame)
Interleave, preload duration : 500 ms

Скриншоты:

Рецензия с сайта КиНОПОиСК от zombion :
Мистер Питкин становится полицейским…

В ногу (я люблю этот фильм)


Перед нами еще один совместный проект режиссера Роберта Эшера и актера Нормана Уисдома под названием «В ногу». Хотя его можно было назвать «Мистер Питкин в полиции», потому что в этом фильме наш неунывающий герой Норман действительно будет полицейским, только вот сама полиция об этом знать ничего не будет. Отец Нормана когда-то был полицейским и конечно сын хочет, чтобы отец гордился бы им. Этот фильм начинается со сна, в котором Питкин корчит из себя супер-полицейского, но когда сон кончается, мы понимаем, что Норман всего лишь уборщик в одном полицейском участке.

Позже так получается, что он надевает форму своего отца и выходит на улицу. А дальше начнется умопомрачительная комедия с неповторимым английским колоритом. Англия вообще очень часто смеялась над полицейскими и поэтому режиссер Роберт Эшер просто не смог пройти мимо этой темы. Вы только представьте Нормана в полицейской форме, и уже станет очень смешно. А в этом фильме будет очень много смешных моментов. Ведь Норман Уисдом в этом фильме сыграл сразу две роли. Конечно, он сыграл Питкина и еще он сыграл главного злодея Джулио Наполитани.

Так получается, что Питкин очень сильно похож на главного злодея и поэтому его приглашают в полицию, чтобы он внедрился в логово врага. А вражеское логово находится в одном салоне красоты. Естественно будет очень много курьезных ситуаций. Я вообще считаю, что перед нами, возможно, самая забавная серия приключений Питкина. Актер Норман Уисдом показал, что он умеет очень ловко перевоплощаться в разных героев. Только ради его великолепной актерской игры можно посмотреть этот очень смешной английский фильм.

В итоге мы имеем уже настоящую классику английского кинематографа. Этот фильм может рассмешить меня до слез, и поэтому я поставлю ему максимальную оценку. Я настоятельно рекомендую ознакомиться с творчеством Нормана Уисдома. Мой старенький шедевр.

Спасибо.

Приключения Питкина в больнице / A Stitch in Time (1963) DVDRip

#7

Русское название: Приключения Питкина в больнице
Оригинальное название: A Stitch in Time
Год выхода: 1963
Страна: Великобритания
Жанр: комедия
Кинокомпания: The Rank Organisation Film Productions Ltd.

Описание фильма: Мистер Гримсдейл — хозяин мясной лавки, в которой работает Мистер Питкин, во время ограбления со страху проглатывает свои карманные часы. Питкин звонит в скорую помощь, и вместе с санитарами приезжает в больницу, где и начинается очередная серия смешных и нелепых приключений Питкина.
Его стремление всем угодить, везде успеть, а также стать врачом, приводит к таким последствиям, что образцовая городская больница превращается в сумасшедший дом…

Режиссер: Роберт Эшер
Актеры: Норман Уисдом, Эдвард Чэпман, Джанетт Стерк, Джерри Десмонд, Джил Мелфорд, Глин Хьюстон, Хэйзел Хьюз, Пэтси Роулэндс, Питер Джонс, Эрнест Кларк, Люси Эпплби, Вера Дэй, Фрэнк Уильямс, Пенни Морелл, Патрик Каргилл, Френсис Мэтьюз, Джон Блайт, Памела Конуэй, Дэнни Грин, Джонни Бриггс, Пэт Кумбс, Майкл Гудлифф, Фред Гриффитс, Кардью Робинсон, Даг Робинсон, Марианн Стоун, Ванда Вентхам…

Продолжительность: 01:30:24
Перевод: дублированный
Автор рипа: KAA

Дата мировой премьеры: 10 февраля 1964

Видеокодек: XviD
Битрейт видео: ~1750 kbps
Размер кадра: 704x384
Качество видео: DVDRip
Аудио:
1: AC3, 2 ch, ~192 kbps – русский
2: AC3, 2 ch, ~192 kbps - английский

General
Complete name : mistEr.pitKin.10_a.stitCh.iN.timE.1963.DVDRip.avi
Format : AVI
Format/Info : Audio Video Interleave
File size : 1.36 GiB
Duration : 1h 30mn
Overall bit rate : 2 150 Kbps
Movie name : Mister.Pitkin.V.Bolnice.1963.XviD.DVDRip-KAA
Director : KAA
Genre : Comedy
Writing application : VirtualDubMod 1.5.10.2 (build 2540/release)
Original source form/Name : Movie
Copyright : KAA
Comment : KAA

Video
ID : 0
Format : MPEG-4 Visual
Format profile : Advanced Simple@L5
Format settings, BVOP : 1
Format settings, QPel : No
Format settings, GMC : No warppoints
Format settings, Matrix : Custom
Codec ID : XVID
Codec ID/Hint : XviD
Duration : 1h 30mn
Bit rate : 1 751 Kbps
Width : 704 pixels
Height : 384 pixels
Display aspect ratio : 16:9
Frame rate : 25.000 fps
Color space : YUV
Chroma subsampling : 4:2:0
Bit depth : 8 bits
Scan type : Progressive
Compression mode : Lossy
Bits/(Pixel*Frame) : 0.259
Stream size : 1.11 GiB (81%)
Writing library : XviD 1.2.1 (UTC 2008-12-04)

Audio #1
ID : 1
Format : AC-3
Format/Info : Audio Coding 3
Mode extension : CM (complete main)
Codec ID : 2000
Duration : 1h 30mn
Bit rate mode : Constant
Bit rate : 192 Kbps
Channel(s) : 2 channels
Channel positions : Front: L R
Sampling rate : 48.0 KHz
Bit depth : 16 bits
Compression mode : Lossy
Stream size : 124 MiB (9%)
Alignment : Split accross interleaves
Interleave, duration : 40 ms (1.00 video frame)
Interleave, preload duration : 500 ms

Audio #2
ID : 2
Format : AC-3
Format/Info : Audio Coding 3
Mode extension : CM (complete main)
Codec ID : 2000
Duration : 1h 30mn
Bit rate mode : Constant
Bit rate : 192 Kbps
Channel(s) : 2 channels
Channel positions : Front: L R
Sampling rate : 48.0 KHz
Bit depth : 16 bits
Compression mode : Lossy
Stream size : 124 MiB (9%)
Alignment : Split accross interleaves
Interleave, duration : 40 ms (1.00 video frame)
Interleave, preload duration : 500 ms

Скриншоты:

Рецензия с сайта КиНОПОиСК от zombion :
САНИТАР! ГДЕ САНИТАР?

- Мне фунт картофеля, две банки сардин и полтонны угля.
- А гвоздей не надо?


Если честно друзья я очень давно хотел начать писать отзывы о фильмах, в которых играет гениальный английский актер Норман Уисдом. Я познакомился с его творчеством еще в детстве. Я видел фильм, когда его персонаж Мистер Питкин попал в армию. Мне этот фильм очень понравился и я решил, что когда я выросту я обязательно куплю этот фильм и другие его работы. Сейчас у меня в коллекции десять фильмов с Норманом Уисдомом в главной роли. И один из них называется…

МИСТЕР ПИТКИН В БОЛЬНИЦЕ (я люблю этот фильм)

Норман Уисдом создал удивительный образ. Его Мистер Питкин добрый растяпа, который постоянно попадает в какие-нибудь нелепые ситуации. Но он всегда выходит из них пускай даже нелепо. В этой части он работает продавцом мяса. Однажды его начальник случайно проглатывает часы и Питкин отвозит его в больницу. Те, кто знают Питкина, сразу могут догадаться, что будет дальше.

А будет друзья очень много шуток, очень много разных веселых ситуаций и много чего еще забавного. Мои самые любимые сцены, это когда Питкин катался на специальной кровати, наперегонки в больнице, и когда он попал в стоматологический кабинет, и пытался вырвать зуб у одного человека или когда он весь перебинтованный, едет на скорой помощи. Ой, да что там говорить это надо видеть.

Из всех актеров, которые играют в этом фильме, я хотел бы отметить Эдварда Чэпмана и Джерри Десмонда. Они очень часто играли вместе с Норманом Уисдомом. Даже можно сказать постоянные актеры. Здесь они сыграли просто великолепно. И конечно хочу сказать спасибо, замечательному английскому режиссеру Роберту Эшеру, который сделал один из самых смешных фильмов про МИСТЕРА ПИТКИНА.

Норману Уисдому на данный момент 94 года. Вы представляете? Это настоящий актер, который снимается до сих пор. Актер такого высокого уровня, что сравнивать его просто не с кем.

Спасибо.

В конце всегда я улыбаюсь.

Ранняя пташка / The Early Bird (1965) DVDRip

#7

Русское название: Ранняя пташка
Оригинальное название: The Early Bird
Год выхода: 1965
Страна: Великобритания
Жанр: комедия
Кинокомпания: The Rank Organisation Film Productions Ltd.

Описание фильма: Норман работает на старой, забытой Богом, маслобойне, все оборудование которой медленно, но верно приходит в полную негодность. А вокруг, между тем, кипит жизнь - технический прогресс уверенно наступает со всех сторон. И тогда Норман решает, во что бы это не стало отстоять свою древнюю маслобойню…

Режиссер: Роберт Эшер
Актеры: Норман Уисдом, Эдвард Чэпман, Джерри Десмонд, Пэдди О'Нил, Брайан Прингл, Ричард Вернон, Джон Ле Мезюрье, Питер Джефри, Пенни Морелл, Мария Лоуренс, Фрэнк Торнтон, Дэнди Николс, Гарри Лок, Майкл Билтон, Имоген Хассалл, Нелли, Фред Гриффитс, Эдвард Лесли, Дэвид Лодж, Энтони Сагар, Нил Уилсон…

Продолжительность: 01:33:46
Перевод: одноголосый закадровый
Автор рипа: KAA


Дата мировой премьеры: 30 ноября 1965

Видеокодек: XviD
Битрейт видео: ~1822 kbps
Размер кадра: 704x512
Качество видео: DVDRip
Аудио:
1: AC3, 2 ch, ~192 kbps - русский
2: AC3, 2 ch, ~192 kbps - английский

General
Complete name : mistEr.pitKin.11_thE.eArly.biRd.1965.DVDRip.avi
Format : AVI
Format/Info : Audio Video Interleave
File size : 1.46 GiB
Duration : 1h 33mn
Overall bit rate : 2 222 Kbps
Movie name : Mister.Pitkin.Rannjaja.Ptashka.1965.XviD.DVDRip-KAA
Director : KAA
Genre : Comedy
Writing application : VirtualDubMod 1.5.10.2 (build 2540/release)
Original source form/Name : Movie
Copyright : KAA
Comment : KAA

Video
ID : 0
Format : MPEG-4 Visual
Format profile : Advanced Simple@L5
Format settings, BVOP : 1
Format settings, QPel : No
Format settings, GMC : No warppoints
Format settings, Matrix : Custom
Codec ID : XVID
Codec ID/Hint : XviD
Duration : 1h 33mn
Bit rate : 1 824 Kbps
Width : 704 pixels
Height : 512 pixels
Display aspect ratio : 1.375
Frame rate : 25.000 fps
Color space : YUV
Chroma subsampling : 4:2:0
Bit depth : 8 bits
Scan type : Progressive
Compression mode : Lossy
Bits/(Pixel*Frame) : 0.202
Stream size : 1.19 GiB (82%)
Writing library : XviD 1.2.1 (UTC 2008-12-04)

Audio #1
ID : 1
Format : AC-3
Format/Info : Audio Coding 3
Mode extension : CM (complete main)
Codec ID : 2000
Duration : 1h 33mn
Bit rate mode : Constant
Bit rate : 192 Kbps
Channel(s) : 2 channels
Channel positions : Front: L R
Sampling rate : 48.0 KHz
Bit depth : 16 bits
Compression mode : Lossy
Stream size : 129 MiB (9%)
Alignment : Split accross interleaves
Interleave, duration : 40 ms (1.00 video frame)
Interleave, preload duration : 500 ms

Audio #2
ID : 2
Format : AC-3
Format/Info : Audio Coding 3
Mode extension : CM (complete main)
Codec ID : 2000
Duration : 1h 33mn
Bit rate mode : Constant
Bit rate : 192 Kbps
Channel(s) : 2 channels
Channel positions : Front: L R
Sampling rate : 48.0 KHz
Bit depth : 16 bits
Compression mode : Lossy
Stream size : 129 MiB (9%)
Alignment : Split accross interleaves
Interleave, duration : 40 ms (1.00 video frame)
Interleave, preload duration : 500 ms

Скриншоты:

Рецензия с сайта КиНОПОиСК от zombion :
Я своими глазами видел, что он разбивал наши бутылки…

Ранняя пташка (я люблю этот фильм)


Это предпоследний совместный фильм режиссера Роберта Эшера и актера Нормана Уисдома, но это последний совместный фильм актера Эдварда Чэпмана и актера Джерри Десмонда, а они практически никогда не пропускали фильмов про мистера Питкина, и они были друзьями актера Нормана Уисдома. Чэпман всегда играл начальника мистера Питкина, а Десмонд всегда был противником Питкина. И данный фильм, который вышел в 1965 году, наверное, стал самым лучшим их совместным проектом.

Везде где появляется мистер Питкин, начинаются беды и разрушения, а в данном фильме мистер Питкин проснулся очень рано, а это значит, что все получат по заслугам еще с утра. Ну а если серьезно, то в этом фильме он работает молочником и развозит на своей лошадке молоко. У него есть соперник, который работает на огромную компанию, а Питкин работает на частного предпринимателя мистера Гримздейла. Позже он вступает в войну с целой корпорацией, которая вообще обнаглела и начала разбивать бутылки Питкина. И тут начинается самое интересное…

Данный фильм просто забит до отказа безумными выходками мистера Питкина. Когда он спустился с лестницы вместе с обоями, то я смеялся как ненормальный, а когда он свою лошадь в кровать затащил, то я думал что вообще умру от смеха. Юмор в этом фильме просто ядреный и можно даже сказать ненормальный. Когда Питкин бегает по огромному зданию со шлангом и кричит всем, что начался пожар, то я признаю этот фильм самым невменяемым фильмом Нормана Уисдома. Его герой в этом фильме явно пошел в разнос.

Хотя, несмотря на все безумие, которое происходит на экране, в фильме нет пошлости и грязи. Английский кинематограф раньше был просто идеальным. Данный фильм стал последним прорывом мистера Питкина и только ради этого уже стоит посмотреть данный фильм. Я очень люблю английский кинематограф только потому, что в нем есть такие замечательные картины. Стопроцентный шедевр от Эшера. Рекомендую.

Спасибо.


Из лучших побуждений / Press for Time (1966) DVDRip

#7

Русское название: Из лучших побуждений
Оригинальное название: Press for Time
Год выхода: 1966
Страна: Великобритания
Жанр: комедия
Кинокомпания: The Rank Organisation Film Productions Ltd., Titan Films

Описание фильма: Норман - скромный продавец газет на одной из лондонских улиц. Этим, естественно, недоволен его дедушка-премьер-министр, который решает отправить своего внука в провинциальный Тинмут в качестве репортера местной газеты, руководимой майором Бартлеттом, депутатом от консервативной партии. Прибыв на место, Норман неожиданно для себя оказывается в центре скандала и борьбы за власть между местными партийными группировками.…

Режиссер: Роберт Эшер
Актеры: Норман Уисдом, Дерек Бонд, Анджела Браун, Трэйси Крисп, Аллан Катбертсон, Ноэль Дайсон, Дерек Фрэнсис, Питер Джонс, Дэвид Лодж, Стэнли Унвин, Фрэнсис Уайт, Майкл Бальфур, Тони Шелби, Майкл Билтон, Норман Питт, Хазел Коппен, Тотти Труман Тейлор, Тони Джилпин, Гордон Роллингс, Имоген Хассалл, Хелен Миррен, Джордж Родерик, Нил Уилсон…

Продолжительность: 01:38:08
Перевод: двухголосый закадровый
Автор рипа: KAA

Дата мировой премьеры: 8 декабря 1966

Видеокодек: XviD
Битрейт видео: ~1723 kbps
Размер кадра: 704x528
Качество видео: DVDRip
Аудио:
1: AC3, 2 ch, ~192 kbps - русский
2: AC3, 2 ch, ~192 kbps - английский

General
Complete name : mistEr.pitKin.12_prEss.fOr.timE.1966.DVDRip.avi
Format : AVI
Format/Info : Audio Video Interleave
File size : 1.46 GiB
Duration : 1h 38mn
Overall bit rate : 2 123 Kbps
Movie name : Mister.Pitkin.Iz.Luchshikh.Pobuzhdenij.1966.Xvid.DVDRip-KAA
Director : KAA
Genre : Comedy
Writing application : VirtualDubMod 1.5.10.2 (build 2540/release)
Original source form/Name : Movie
Copyright : KAA
Comment : KAA

Video
ID : 0
Format : MPEG-4 Visual
Format profile : Advanced Simple@L5
Format settings, BVOP : 1
Format settings, QPel : No
Format settings, GMC : No warppoints
Format settings, Matrix : Custom
Codec ID : XVID
Codec ID/Hint : XviD
Duration : 1h 38mn
Bit rate : 1 725 Kbps
Width : 704 pixels
Height : 528 pixels
Display aspect ratio : 4:3
Frame rate : 25.000 fps
Color space : YUV
Chroma subsampling : 4:2:0
Bit depth : 8 bits
Scan type : Progressive
Compression mode : Lossy
Bits/(Pixel*Frame) : 0.186
Stream size : 1.18 GiB (81%)
Writing library : XviD 1.2.1 (UTC 2008-12-04)

Audio #1
ID : 1
Format : AC-3
Format/Info : Audio Coding 3
Mode extension : CM (complete main)
Codec ID : 2000
Duration : 1h 38mn
Bit rate mode : Constant
Bit rate : 192 Kbps
Channel(s) : 2 channels
Channel positions : Front: L R
Sampling rate : 48.0 KHz
Bit depth : 16 bits
Compression mode : Lossy
Stream size : 135 MiB (9%)
Alignment : Split accross interleaves
Interleave, duration : 40 ms (1.00 video frame)
Interleave, preload duration : 500 ms

Audio #2
ID : 2
Format : AC-3
Format/Info : Audio Coding 3
Mode extension : CM (complete main)
Codec ID : 2000
Duration : 1h 38mn
Bit rate mode : Constant
Bit rate : 192 Kbps
Channel(s) : 2 channels
Channel positions : Front: L R
Sampling rate : 48.0 KHz
Bit depth : 16 bits
Compression mode : Lossy
Stream size : 135 MiB (9%)
Alignment : Split accross interleaves
Interleave, duration : 40 ms (1.00 video frame)
Interleave, preload duration : 500 ms

Скриншоты:

Рецензия с сайта КиНОПОиСК от zombion :
Последний фильм легендарного английского героя Нормана…

Из лучших побуждений (я люблю этот фильм)


А вот про этот фильм мне очень грустно говорить, потому что он стал последним полнометражным фильмом для английского режиссера Роберта Эшера. И этот фильм стал последним фильмом, в котором можно увидеть Нормана или мистера Питкина. Я не знаю, почему актер Норман Уисдом больше не играл мистера Питкина, но как говорится, дело уже давно было сделано. Мне кажется, просто этот герой пережил себя, и ему нужно было уйти на покой. Ведь мистер Питкин — это герой, который появился в черно-белом кинематографе, а к 1966 году практически все фильмы снимались в цвете. Данный фильм не стал исключением, хотя до этого фильма тоже выходила цветная картина про Питкина, которая называлась «Ранняя пташка» и она была очень смешной.

В фильме «Из лучших побуждений» уже заметны перемены этого героя. Конечно, Норман Уисдом старался, как мог и в этом фильме он сыграл даже несколько ролей, но все равно этот фильм получился менее смешным, чем остальные картины с этим героем. А в этом фильме наш Норман будет работать в одной газете журналистом, причем работать он будет плохо, а это, значит, будут разные глупые ситуации и забавные моменты.

В этом фильме заметно, что актер Норман Уисдом вырос из своего постоянного образа, хотя Норман в этом фильме очень добрый и немного даже грустный. Этот фильм очень трудно найти и он как-то затерялся. Когда я его посмотрел, то я просто вспоминал другие фильмы с этим героем. Я как большой фанат Нормана Уисдома просто не могу поставить этому фильму маленькую оценку, хотя перед нами далеко не шедевр. Перед нами один простой английский фильм на один просмотр. Поэтому рекомендую его к просмотру только тем людям, которые хорошо знают и любят творчество Нормана Уисдома.

В итоге мы имеем фильм, который закрыл целую эпоху легендарного английского комика. В кинематографе есть фильмы, которые далеко не самые лучшие, но которые абсолютно случайным способом являлись знаковыми лентами. Фильм «Из лучших побуждений» направил английский юмор в другую сторону. На смену Нормана Уисдома пришел Бенни Хилл. Все когда-нибудь уйдут, а он ушел из лучших побуждений…

Спасибо.
  • Торрент
Автор: AngelBlade Хэш: 919b47d22d1d933ed078f7395fe5aaca0ba30c94
Добавлен: 19 апр 2012, 15:51 Приватный: Нет (DHT включён)
Статус: Проверен
Размер: 16.99 ГБ (18 238 261 248 байт)
Изменил: AngelBlade (19 апр 2012, 15:53)
Скачали: 0 (Раздающих: 100%)
Причина:
---
Здоровье: 100%
Сидеров: 44 Личеров: 5
Скорость раздачи: 0 байт/сек Скорость скачивания: 0 байт/сек
Последний сидер: 2 года 3 месяца 9 дней 17 часов 20 минут 1 секунду назад Последний личер: 2 года 3 месяца 9 дней 17 часов 20 минут 1 секунду назад
Скачать торрент Магнет ссылка
Скачать торрент
[ Размер 86.38 КБ / Просмотров 69 ]

Вернуться в Классика


cron
Ресурс не предоставляет электронные версии произведений, а занимается лишь коллекционированием и каталогизацией ссылок, присылаемых и публикуемых на форуме нашими читателями. Если вы являетесь правообладателем какого-либо представленного материала и не желаете чтобы ссылка на него находилась в нашем каталоге, свяжитесь с нами и мы незамедлительно удалим её. Файлы для обмена на трекере предоставлены пользователями сайта, и администрация не несёт ответственности за их содержание. Просьба не заливать файлы, защищенные авторскими правами, а также файлы нелегального содержания!