Годзилла 2: Король монстров / Godzilla: King of the Monsters ( Майкл Догерти) [2019,Фантастика, фэнтези, боевик, приключения,WEB-DLRip 1080p] [HDRezka+Ukr+ENG]+[Subs ENG]


Раздал: 69.88 ТБ
Скачал: 13.98 ГБ
Ратио: 5116.842
Сообщения: 489

Зарегистрирован: 25 май 2015, 11:30
Годзилла 2: Король монстров / Godzilla: King of the Monsters



Год выпуска: 2019
Выпущено: США, Япония, Warner Bros., Legendary Entertainment, Toho Company
Жанр: Фантастика, фэнтези, боевик, приключения
Продолжительность: 02:11:35

Озвучка #1: Профессиональный многоголосый - HDRezka Studio - Русский

Озвучка #2: Дублированный - Line - Украинский

Озвучка #3: Профессиональный многоголосый -Английский - Оригинал

Субтитры: Корейские (хардсаб),English, English SDH



Релиз Без Рекламы


MDB 6.5

Режиссеры:
Майкл Догерти

В ролях: Кайл Чандлер, Вера Фармига, Милли Бобби Браун, Кэн Ватанабэ, Цзыи Чжан, Брэдли Уитфорд, Салли Хокинс, Чарльз Дэнс, Томас Миддлдитч, Аиша Хайндс, О`Ши Джексон мл., Дэвид Стрэтэйрн, Энтони Рамос, Элизабет Ладлоу, Джонатан Ховард, Си Си Эйч Паундер, Джо Мортон, Тайлер Крумли, Келли Гарнер


История рассказывает о героических усилиях криптозоологического агентства «Монарх» по сдерживанию гигантских монстров. В этот раз против могучего Годзиллы выступают Мотра, Родан и ультимативный кайдзю — трёхголовый монстр Кинг Гидора. Когда эти древние суперхищники, со временем превратившиеся в полузабытые мифы, восстают снова, чтобы сойтись в схватке, человечеству остаётся отойти в сторонку и постараться не погибнуть.




Качество :WEB-DLRip 1080p
Формат: MKV
Видео кодек: H264
Видео: 3500Кбит/сек,1920х800(2.40.1),в 29.970кадр/сек,AVC (High@L4)(CABAC/4 Ref Frames)

Аудио Кодек:AAC

Аудио #1: AАC , 160 Kbps, 48.0 KHz, 2 ch- HDRezka -Русский

Аудио #2: AАC , 160 Kbps, 48.0 KHz, 2 ch- Line -Украинский

Аудио #3: AАC , 160 Kbps, 48.0 KHz, 2 ch - - English - Оригинал

Звуковая дорожка сделана путем наложения чистого голоса озвучивателей на центральный канал оригинальной дорожки. Качество идентично звуковой дорожке.


Общее
Уникальный идентификатор : 43138467439608215158986611606889197776 (0x20742AA7968DF67A21B2444DB80070D0)
Полное имя : C:\Users\Russian Patriot\Downloads\Годзилла 2 Король монстров - Godzilla King of the Monsters\Godzilla.King.of.the.Monsters.2019.N.B.WEBRip.1080p.Rus_Ukr_Eng\Godzilla.King.of.the.Monsters.2019.N.B.WEBRip.1080p.Rus_Ukr_Eng.mkv
Формат : Matroska
Версия формата : Version 4
Размер файла : 3,63 Гбайт
Продолжительность : 2 ч. 11 м.
Общий поток : 3947 Кбит/сек
Название фильма : Godzilla King of the Monsters 2019 @ Nikolai.Baranov & PIRATIYA
Дата кодирования : UTC 2019-08-05 07:44:24
Программа кодирования : mkvmerge v35.0.0 ('All The Love In The World') 64-bit
Библиотека кодирования : libebml v1.3.9 + libmatroska v1.5.2

Видео
Идентификатор : 1
Формат : AVC
Формат/Информация : Advanced Video Codec
Профиль формата : High@L4
Настройки формата : CABAC / 4 Ref Frames
Параметр CABAC формата : Да
Параметр RefFrames формата : 4 кадра
Идентификатор кодека : V_MPEG4/ISO/AVC
Продолжительность : 2 ч. 11 м.
Битрейт : 3500 Кбит/сек
Ширина : 1920 пикселей
Высота : 800 пикселей
Соотношение сторон : 2,40:1
Режим частоты кадров : Постоянный
Частота кадров : 29,970 (30000/1001) кадров/сек
Цветовое пространство : YUV
Субдискретизация насыщенности : 4:2:0
Битовая глубина : 8 бит
Тип развёртки : Прогрессивная
Бит/(Пиксели*Кадры) : 0.076
Размер потока : 3,19 Гбайт (88%)
Заголовок : Godzilla.King.of.the.Monsters.2019.N.B.WEBRip.1080p.Rus_Ukr_Eng
Библиотека кодирования : x264 core 152 r2854 e9a5903
Настройки программы : cabac=1 / ref=3 / deblock=1:0:0 / analyse=0x3:0x133 / me=hex / subme=7 / psy=1 / psy_rd=1.00:0.00 / mixed_ref=1 / me_range=16 / chroma_me=1 / trellis=1 / 8x8dct=1 / cqm=0 / deadzone=21,11 / fast_pskip=1 / chroma_qp_offset=-2 / threads=24 / lookahead_threads=4 / sliced_threads=0 / nr=0 / decimate=1 / interlaced=0 / bluray_compat=0 / constrained_intra=0 / bframes=3 / b_pyramid=2 / b_adapt=1 / b_bias=0 / direct=1 / weightb=1 / open_gop=0 / weightp=2 / keyint=250 / keyint_min=25 / scenecut=40 / intra_refresh=0 / rc_lookahead=40 / rc=abr / mbtree=1 / bitrate=3500 / ratetol=1.0 / qcomp=0.60 / qpmin=10 / qpmax=51 / qpstep=4 / ip_ratio=1.40 / aq=1:1.00
Язык : Russian
Default : Да
Forced : Нет

Аудио #1
Идентификатор : 4
Формат : AAC LC
Формат/Информация : Advanced Audio Codec Low Complexity
Идентификатор кодека : A_AAC-2
Продолжительность : 2 ч. 11 м.
Битрейт : 157 Кбит/сек
Каналы : 2 канала
ChannelLayout : L R
Частота : 48,0 КГц
Частота кадров : 46,875 кадров/сек (1024 SPF)
Метод сжатия : С потерями
Размер потока : 148 Мбайт (4%)
Заголовок : MVO HDRezka @ AАC , 160 Kbps, 48.0 KHz, 2 ch
Язык : Russian
Default : Да
Forced : Нет

Аудио #2
Идентификатор : 5
Формат : AAC LC
Формат/Информация : Advanced Audio Codec Low Complexity
Идентификатор кодека : A_AAC-2
Продолжительность : 2 ч. 11 м.
Битрейт : 157 Кбит/сек
Каналы : 2 канала
ChannelLayout : L R
Частота : 48,0 КГц
Частота кадров : 46,875 кадров/сек (1024 SPF)
Метод сжатия : С потерями
Размер потока : 148 Мбайт (4%)
Заголовок : DUB Ukr-Line @ AАC , 160 Kbps, 48.0 KHz, 2 ch
Язык : Ukrainian
Default : Нет
Forced : Нет

Аудио #3
Идентификатор : 6
Формат : AAC LC
Формат/Информация : Advanced Audio Codec Low Complexity
Идентификатор кодека : A_AAC-2
Продолжительность : 2 ч. 11 м.
Битрейт : 157 Кбит/сек
Каналы : 2 канала
ChannelLayout : L R
Частота : 48,0 КГц
Частота кадров : 46,875 кадров/сек (1024 SPF)
Метод сжатия : С потерями
Размер потока : 148 Мбайт (4%)
Заголовок : Original @ AАC , 160 Kbps, 48.0 KHz, 2 ch
Язык : English
Default : Нет
Forced : Нет

Текст #1
Идентификатор : 2
Формат : UTF-8
Идентификатор кодека : S_TEXT/UTF8
Идентификатор кодека/Информация : UTF-8 Plain Text
Продолжительность : 2 ч. 11 м.
Битрейт : 53 бит/сек
ElementCount : 1859
Размер потока : 51,8 Кбайт (0%)
Заголовок : Original - SDH
Язык : English
Default : Да
Forced : Нет

Текст #2
Идентификатор : 3
Формат : UTF-8
Идентификатор кодека : S_TEXT/UTF8
Идентификатор кодека/Информация : UTF-8 Plain Text
Продолжительность : 2 ч. 11 м.
Битрейт : 44 бит/сек
ElementCount : 1484
Размер потока : 42,8 Кбайт (0%)
Заголовок : Original
Язык : English
Default : Нет
Forced : Нет

Меню
00:00:00.000 : :Глава 01 / :Глава 01 / :Глава 01 / :Глава 01 / :Глава 01 / :Глава 01














Релиз от: Nikolai.Baranov & PIRATIYA . Поблагодарить:
ЯД: 410017546713876








Время раздачи : 24/7
  • Торрент
Автор: Враг Нароода Хэш: a7215e2caea4de29b4bce9a9304698472e3e1b76
Добавлен: 05 авг 2019, 14:10 Приватный: Нет (DHT включён)
Статус: Проверен
Размер: 3.77 ГБ (4 053 208 130 байт)
Изменил:
---
Скачали: 0 (Раздающих: 100%)
Причина:
---
Здоровье: 100%
Сидеров: 3 Личеров: 0
Скорость раздачи: 0 байт/сек Скорость скачивания: 0 байт/сек
Последний сидер: 8 дней 4 часа 3 минуты 39 секунд назад Последний личер: Нет
Скачать торрент Магнет ссылка
Скачать торрент
[ Размер 82.37 КБ / Просмотров 3 ]

Вернуться в HD DVD/BD/HDTV-Rip


cron
Ресурс не предоставляет электронные версии произведений, а занимается лишь коллекционированием и каталогизацией ссылок, присылаемых и публикуемых на форуме нашими читателями. Если вы являетесь правообладателем какого-либо представленного материала и не желаете чтобы ссылка на него находилась в нашем каталоге, свяжитесь с нами и мы незамедлительно удалим её. Файлы для обмена на трекере предоставлены пользователями сайта, и администрация не несёт ответственности за их содержание. Просьба не заливать файлы, защищенные авторскими правами, а также файлы нелегального содержания!