Призрак в доспехах / Ghost in the Shell [2017] ( Руперт Сандерс) [Фантастика, боевик, триллер, драма, криминал, детектив] [BDRip ] [1080p] [DD5.1] [Dub Rus,Ukr,Englis + Subs Rus ,Ukr, ENG] [ iTunes]


Раздал: 53.05 ТБ
Скачал: 13.98 ГБ
Ратио: 3884.909
Сообщения: 395

Зарегистрирован: 25 май 2015, 11:30
Призрак в доспехах / Ghost in the Shell



Год выпуска: 2017
Выпущено: США, OArad Productions, DreamWorks, Grosvenor Park Productions
Жанр: Фантастика, боевик, триллер, драма, криминал, детектив
Продолжительность: 01:46:56


Озвучка 1: Дублированный - - iTunes-Русский

Озвучка 2: Дублированный - - iTunes-Ukrainian

Озвучка 3: Профессиональный многоголосый -Английский -Оригинал

Субтитры: Russian (Forced, iTunes), Russian (iTunes), Ukrainian (Forced, iTunes), Ukrainian (iTunes), English, English (SDH)





Режиссер:
Руперт Сандерс

В ролях: Скарлетт Йоханссон, Йохан Филип Асбек, Такеши Китано, Жюльетт Бинош, Майкл Питт, Чин Хань, Дануся Самал, Ласарус Ратуэре, Ютака Идзумихара, Таванда Маниймо



Светлое будущее, где что-то пошло не так. Мир погряз в Интернете и передовом протезировании. Каждое человеческое существо считает своим святым долгом вставить в уши антенны от Wi-Fi роутера, сделать пластическую операцию под Рикки Мартина или хотя бы залить в себя лимонад "Буратино" вместо крови. Между тем, в недрах могущественной корпорации тайно разрабатывается особый военизированный имплант, фактически не оставляющий в организме подопытного ни одного живого места. Получившийся в результате эксперимента гибрид зачисляют в качестве боевого агента в отдел по борьбе с электронным бандитизмом. И когда неизвестный хакер начинает виртуозно кошмарить бизнес, грубо проникая в мозги лучших ученых компании с помощью инородных предметов, только первый в мире киборг с полностью синтетическим телом и встроенным генератором случайных мыслей и эмоций способен остановить произвол.





Качество :BDRip 1080p Источник: Ghost.in.the.Shell.2017.COMPLETE.BD-Remux 1080p
Формат: MKV
Видео кодек: H264
Видео: 15,0Мбит/сек,1920х1080(16.9),в 29.970кадр/сек,,AVC(Baseline@L5.1)(1Ref Frames)
Аудио Кодек:AC3
Аудио Кодек:DTS

Аудио #1:AC3 , 384 Kbps, 48.0 KHz, 6 ch- -Дублированный- iTunes-Русский

Аудио #2:DTS, 3968 Kbps, 48.0 KHz,6 ch - -Дублированный- iTunes-Русский

Аудио #3:AC3 , 384 Kbps, 48.0 KHz, 6 ch- -Дублированный- iTunes-Ukrainian

Аудио #4: AC3, 384 Kbps, 48.0 KHz,6 ch - - English-Английский -Оригинал

Аудио #5: DTS, 3968 Kbps, 48.0 KHz,6 ch - - English-Английский -Оригинал

Аудио #6:AC3, 192 Kbps, 48.0 KHz,6 ch - - English-Английский - Descriptive-Оригинал



Общее
Уникальный идентификатор : 253252552498138045909172065620663508727 (0xBE86AADD02EBA0C09B0654CCCFE89EF7)
Полное имя : C:\ХОББИ\ПИРАТИЯ(PIRATIYA)\ПРИЗРАК В ДОСПЕХАХ\GHOST_IN_THE_SHELL_Rus_Ukr[DUB_iTuness]_Eng_DD5.1_N.B_BDRip_1080p\GHOST_IN_THE_SHELL_Rus_Ukr[DUB_iTuness]_Eng_DD5.1_N.B_BDRip_1080p.mkv
Формат : Matroska
Версия формата : Version 4 / Version 2
Размер файла : 18,3 Гбайт
Продолжительность : 1 ч. 46 м.
Режим общего битрейта : Переменный
Общий поток : 24,5 Мбит/сек
Название фильма : GHOST_IN_THE_SHELL_Rus_Ukr[DUB_iTuness]_Eng_DD5.1_N.B_BDRip_1080p
Дата кодирования : UTC 2017-07-17 09:34:38
Программа кодирования : mkvmerge v13.0.0 ('The Juggler') 64bit
Библиотека кодирования : libebml v1.3.4 + libmatroska v1.4.5

Видео
Идентификатор : 1
Формат : AVC
Формат/Информация : Advanced Video Codec
Профиль формата : Baseline@L5.1
Параметр CABAC формата : Нет
Параметр RefFrames формата : 1 кадр
Параметр GOP формата : M=1, N=12
Идентификатор кодека : V_MPEG4/ISO/AVC
Продолжительность : 1 ч. 46 м.
Вид битрейта : Переменный
Битрейт : 15,0 Мбит/сек
Максимальный битрейт : 18,0 Мбит/сек
Ширина : 1920 пикселей
Высота : 1080 пикселей
Соотношение сторон : 16:9
Режим частоты кадров : Постоянный
Частота кадров : 29,970 (29970/1000) кадров/сек
Частота кадров в оригинале : 24,000 кадра/сек
Цветовое пространство : YUV
Субдискретизация насыщенности : 4:2:0
Битовая глубина : 8 бит
Тип развёртки : Прогрессивная
Бит/(Пиксели*Кадры) : 0.241
Размер потока : 11,2 Гбайт (61%)
Заголовок : GHOST_IN_THE_SHELL_Rus_Ukr[DUB_iTuness]_Eng_DD5.1_N.B_BDRip_1080p
Язык : Russian
Default : Да
Forced : Нет

Аудио #1
Идентификатор : 11
Формат : AC-3
Формат/Информация : Audio Coding 3
Параметр Endianness формата : Big
Идентификатор кодека : A_AC3
Продолжительность : 1 ч. 46 м.
Вид битрейта : Постоянный
Битрейт : 384 Кбит/сек
Каналы : 6 каналов
Расположение каналов : Front: L C R, Side: L R, LFE
Частота : 48,0 КГц
Частота кадров : 31,250 кадров/сек (1536 SPF)
Битовая глубина : 16 бит
Метод сжатия : С потерями
Размер потока : 294 Мбайт (2%)
Заголовок : Rus DUB iTuness @DD5.1 AC3 ,384 Kbps, 48.0 KHz, 6 ch
Язык : Russian
ServiceKind/String : Complete Main
Default : Да
Forced : Нет

Аудио #2
Идентификатор : 12
Формат : DTS
Формат/Информация : Digital Theater Systems
Режим : 16
Параметр Endianness формата : Big
Идентификатор кодека : A_DTS
Продолжительность : 1 ч. 46 м.
Вид битрейта : Постоянный
Битрейт : 3968 Кбит/сек
Каналы : 6 каналов
Расположение каналов : Front: L C R, Side: L R, LFE
Частота : 48,0 КГц
Частота кадров : 46,875 кадров/сек (1024 SPF)
Битовая глубина : 16 бит
Метод сжатия : С потерями
Размер потока : 2,96 Гбайт (16%)
Заголовок : Rus DUB iTuness @DTS,3968 Kbps, 48.0 KHz, 6 ch
Язык : Russian
Default : Нет
Forced : Нет

Аудио #3
Идентификатор : 13
Формат : AC-3
Формат/Информация : Audio Coding 3
Параметр Endianness формата : Big
Идентификатор кодека : A_AC3
Продолжительность : 1 ч. 46 м.
Вид битрейта : Постоянный
Битрейт : 384 Кбит/сек
Каналы : 6 каналов
Расположение каналов : Front: L C R, Side: L R, LFE
Частота : 48,0 КГц
Частота кадров : 31,250 кадров/сек (1536 SPF)
Битовая глубина : 16 бит
Метод сжатия : С потерями
Размер потока : 294 Мбайт (2%)
Заголовок : Ukr DUB iTuness @DD5.1 AC3 ,384 Kbps, 48.0 KHz, 6 ch
Язык : Ukrainian
ServiceKind/String : Complete Main
Default : Нет
Forced : Нет

Аудио #4
Идентификатор : 14
Формат : AC-3
Формат/Информация : Audio Coding 3
Параметр Endianness формата : Big
Идентификатор кодека : A_AC3
Продолжительность : 1 ч. 46 м.
Вид битрейта : Постоянный
Битрейт : 384 Кбит/сек
Каналы : 6 каналов
Расположение каналов : Front: L C R, Side: L R, LFE
Частота : 48,0 КГц
Частота кадров : 31,250 кадров/сек (1536 SPF)
Битовая глубина : 16 бит
Метод сжатия : С потерями
Размер потока : 294 Мбайт (2%)
Заголовок : Original@DD5.1 AC3 , 384 Kbps, 48.0 KHz, 6 ch
Язык : English
ServiceKind/String : Complete Main
Default : Нет
Forced : Нет

Аудио #5
Идентификатор : 15
Формат : AC-3
Формат/Информация : Audio Coding 3
Параметр Endianness формата : Big
Идентификатор кодека : A_AC3
Продолжительность : 1 ч. 46 м.
Вид битрейта : Постоянный
Битрейт : 384 Кбит/сек
Каналы : 6 каналов
Расположение каналов : Front: L C R, Side: L R, LFE
Частота : 48,0 КГц
Частота кадров : 31,250 кадров/сек (1536 SPF)
Битовая глубина : 16 бит
Метод сжатия : С потерями
Размер потока : 294 Мбайт (2%)
Заголовок : Descriptive Original@DD5.1 AC3 , 384 Kbps, 48.0 KHz, 6 ch
Язык : English
ServiceKind/String : Complete Main
Default : Нет
Forced : Нет

Аудио #6
Идентификатор : 16
Формат : DTS
Формат/Информация : Digital Theater Systems
Режим : 16
Параметр Endianness формата : Big
Идентификатор кодека : A_DTS
Продолжительность : 1 ч. 46 м.
Вид битрейта : Постоянный
Битрейт : 3968 Кбит/сек
Каналы : 6 каналов
Расположение каналов : Front: L C R, Side: L R, LFE
Частота : 48,0 КГц
Частота кадров : 46,875 кадров/сек (1024 SPF)
Битовая глубина : 16 бит
Метод сжатия : С потерями
Размер потока : 2,96 Гбайт (16%)
Заголовок : Original @DTS,3968 Kbps, 48.0 KHz, 6 ch
Язык : English
Default : Нет
Forced : Нет

Текст #1
Идентификатор : 2
Формат : PGS
Режим смешивания : zlib
Идентификатор кодека : S_HDMV/PGS
Идентификатор кодека/Информация : Picture based subtitle format used on BDs/HD-DVDs
Продолжительность : 1 ч. 44 м.
Битрейт : 2817 бит/сек
ElementCount : 150
Размер потока : 2,11 Мбайт (0%)
Заголовок : Rus - Forced - iTunes
Язык : Russian
Default : Да
Forced : Нет

Текст #2
Идентификатор : 3
Формат : PGS
Режим смешивания : zlib
Идентификатор кодека : S_HDMV/PGS
Идентификатор кодека/Информация : Picture based subtitle format used on BDs/HD-DVDs
Продолжительность : 1 ч. 44 м.
Битрейт : 31,7 Кбит/сек
ElementCount : 1832
Размер потока : 23,8 Мбайт (0%)
Заголовок : Rus - iTunes
Язык : Russian
Default : Нет
Forced : Нет

Текст #3
Идентификатор : 4
Формат : UTF-8
Идентификатор кодека : S_TEXT/UTF8
Идентификатор кодека/Информация : UTF-8 Plain Text
Продолжительность : 1 ч. 44 м.
Битрейт : 56 бит/сек
ElementCount : 916
Размер потока : 43,0 Кбайт (0%)
Заголовок : Rus - iTunes
Язык : Russian
Default : Нет
Forced : Нет

Текст #4
Идентификатор : 5
Формат : PGS
Режим смешивания : zlib
Идентификатор кодека : S_HDMV/PGS
Идентификатор кодека/Информация : Picture based subtitle format used on BDs/HD-DVDs
Продолжительность : 1 ч. 44 м.
Битрейт : 2816 бит/сек
ElementCount : 152
Размер потока : 2,11 Мбайт (0%)
Заголовок : Ukr - Forced - iTunes
Язык : Ukrainian
Default : Нет
Forced : Нет

Текст #5
Идентификатор : 6
Формат : PGS
Режим смешивания : zlib
Идентификатор кодека : S_HDMV/PGS
Идентификатор кодека/Информация : Picture based subtitle format used on BDs/HD-DVDs
Продолжительность : 1 ч. 44 м.
Битрейт : 32,2 Кбит/сек
ElementCount : 1940
Размер потока : 24,2 Мбайт (0%)
Заголовок : Ukr - iTunes
Язык : Ukrainian
Default : Нет
Forced : Нет

Текст #6
Идентификатор : 7
Формат : UTF-8
Идентификатор кодека : S_TEXT/UTF8
Идентификатор кодека/Информация : UTF-8 Plain Text
Продолжительность : 1 ч. 44 м.
Битрейт : 57 бит/сек
ElementCount : 971
Размер потока : 44,1 Кбайт (0%)
Заголовок : Ukr - iTunes
Язык : Ukrainian
Default : Нет
Forced : Нет

Текст #7
Идентификатор : 8
Формат : PGS
Режим смешивания : zlib
Идентификатор кодека : S_HDMV/PGS
Идентификатор кодека/Информация : Picture based subtitle format used on BDs/HD-DVDs
Продолжительность : 1 ч. 34 м.
Битрейт : 21,7 Кбит/сек
ElementCount : 1770
Размер потока : 14,7 Мбайт (0%)
Заголовок : Original
Язык : English
Default : Нет
Forced : Нет

Текст #8
Идентификатор : 9
Формат : UTF-8
Идентификатор кодека : S_TEXT/UTF8
Идентификатор кодека/Информация : UTF-8 Plain Text
Продолжительность : 1 ч. 34 м.
Битрейт : 32 бит/сек
ElementCount : 905
Размер потока : 22,9 Кбайт (0%)
Заголовок : Original
Язык : English
Default : Нет
Forced : Нет

Текст #9
Идентификатор : 10
Формат : PGS
Режим смешивания : zlib
Идентификатор кодека : S_HDMV/PGS
Идентификатор кодека/Информация : Picture based subtitle format used on BDs/HD-DVDs
Продолжительность : 1 ч. 35 м.
Битрейт : 27,9 Кбит/сек
ElementCount : 2258
Размер потока : 19,0 Мбайт (0%)
Заголовок : SDH
Язык : English
Default : Нет
Forced : Нет

Меню
00:00:00.000 : en:Глава 01 / en:Глава 01 / en:Глава 01 / en:Глава 01 / en:Глава 01 / en:Глава 01 / en:Глава 01 / en:Глава 01 / en:Глава 01 / en:Глава 01 / en:Глава 01 / en:Глава 01 / en:Глава 01 / en:Глава 01 / en:Глава 01 / en:Глава 01














Релиз от: Nikolai.Baranov & PIRATIYA





  • Торрент
Автор: Враг Нароода Хэш: 42d9f2e8c4750b277bdc60b137587c734f242666
Добавлен: 17 июл 2017, 17:55 Приватный: Нет (DHT включён)
Статус: Проверен
Размер: 18.49 ГБ (19 856 591 045 байт)
Изменил:
---
Скачали: 0 (Раздающих: 100%)
Причина:
---
Здоровье: 66%
Сидеров: 2 Личеров: 3
Скорость раздачи: 0 байт/сек Скорость скачивания: 0 байт/сек
Последний сидер: 1 год 4 месяца 2 дня 1 час 50 минут 13 секунд назад Последний личер: 6 дней 11 часов 54 минуты 39 секунд назад
Скачать торрент Магнет ссылка
Скачать торрент
[ Размер 51.02 КБ / Просмотров 1 ]

Вернуться в HD DVD/BD/HDTV-Rip


cron
Ресурс не предоставляет электронные версии произведений, а занимается лишь коллекционированием и каталогизацией ссылок, присылаемых и публикуемых на форуме нашими читателями. Если вы являетесь правообладателем какого-либо представленного материала и не желаете чтобы ссылка на него находилась в нашем каталоге, свяжитесь с нами и мы незамедлительно удалим её. Файлы для обмена на трекере предоставлены пользователями сайта, и администрация не несёт ответственности за их содержание. Просьба не заливать файлы, защищенные авторскими правами, а также файлы нелегального содержания!