Прочь / Get Out [2017] ( Джордан Пил) [Ужасы, детектив ] [BD-Remux] [1080p] [DD5.1] [Dub Rus, Englis + Subs Rus , ENG] [ iTunes]


Раздал: 67.31 ТБ
Скачал: 13.98 ГБ
Ратио: 4928.608
Сообщения: 477

Зарегистрирован: 25 май 2015, 11:30
Прочь / Get Out



Год выпуска: 2017
Выпущено: США, Blumhouse Productions, QC Entertainment
Жанр: Ужасы, детектив
Продолжительность: 01:44:05

Озвучка 1: Дублированный - - iTunes-Русский

Озвучка 2: Профессиональный многоголосый - AlexFilm -Русский

Озвучка 3: Профессиональный Одноголосный - Авторский - М. Яроцкий -Русский

Озвучка 4: Профессиональный многоголосый -Английский -Оригинал

Субтитры: Russian , English , SDH







Режиссер:
Джордан Пил

В ролях: Дэниэл Калуя, Эллисон Уильямс, Кэтрин Кинер, Брэдли Уитфорд, Калеб Лэндри Джонс, Маркус Хендерсон, Бетти Гэбриел, Лейкит Стэнфилд, Стивен Рут, Лил Релл



Знакомство с родителями подружки не предвещает молодому фотографу из Нью-Йорка ничего хорошего, ведь семья девушки принадлежит к элитному обществу и живет в уединенном загородном доме. Если бы он только знал истинную причину своего приглашения, то немедленно бросился бы прочь…






Качество :BD-Remux 1080p Источник: Get.Out.2017.COMPLETE.BLURAY-LAZERS
Формат: MKV
Видео кодек: H264
Видео: 29,3Мбит/сек,1920х1080(16.9), в 23.976кадр/сек,AVC (High@L4.1)(CABAC/2 Ref Frames)
Аудио Кодек:AC3
Аудио Кодек:DTS

Аудио #1:AC3 , 384 Kbps, 48.0 KHz, 6 ch- -Дублированный- iTunes-Русский

Аудио #2:AC3 , 384 Kbps, 48.0 KHz, 6 ch- -Профессиональный многоголосый - AlexFilm -Русский

Аудио #3:AC3 , 384 Kbps, 48.0 KHz, 6 ch- -Профессиональный Одноголосный - Авторский - М. Яроцкий -Русский

Аудио #4:DTS, 3968 Kbps, 48.0 KHz,6 ch - -Дублированный- iTunes-Русский

Аудио #5: AC3, 384 Kbps, 48.0 KHz,6 ch - - English-Английский -Оригинал

Аудио #6: DTS, 3968 Kbps, 48.0 KHz,6 ch - - English-Английский -Оригинал

Аудио #7:AC3, 192 Kbps, 48.0 KHz,6 ch - - English-Английский - Descriptive-Оригинал

Внимание! Присутствует ненормативная лексика.



Общее
Уникальный идентификатор : 235172262251361073619323199641382612424 (0xB0EC87BAEB721EBEA564F123C390EDC8)
Полное имя : C:\ХОББИ\ПИРАТИЯ(PIRATIYA)\ПРОЧЬ\GET_OUT_2017_3хRus[DUB_iTuness_AlexFilm_Jarocki]_Eng_DD5.1_N.B_BD-Remux_1080p\Get_Out_2017_3хRus[DUB_iTuness]_Eng_DD5.1_N.B_BD-Remux_1080p.mkv
Формат : Matroska
Версия формата : Version 4 / Version 2
Размер файла : 28,4 Гбайт
Продолжительность : 1 ч. 44 м.
Режим общего битрейта : Переменный
Общий поток : 39,0 Мбит/сек
Название фильма : Get_Out_2017_3хRus[DUB_iTuness]_Eng_DD5.1_N.B_BD-Remux_1080p
Дата кодирования : UTC 2017-07-08 15:50:39
Программа кодирования : mkvmerge v13.0.0 ('The Juggler') 64bit
Библиотека кодирования : libebml v1.3.4 + libmatroska v1.4.5

Видео
Идентификатор : 1
Формат : AVC
Формат/Информация : Advanced Video Codec
Профиль формата : High@L4.1
Параметр CABAC формата : Да
Параметр RefFrames формата : 2 кадра
Идентификатор кодека : V_MPEG4/ISO/AVC
Продолжительность : 1 ч. 44 м.
Вид битрейта : Переменный
Битрейт : 29,3 Мбит/сек
Ширина : 1920 пикселей
Высота : 1080 пикселей
Соотношение сторон : 16:9
Режим частоты кадров : Постоянный
Частота кадров : 23,976 (24000/1001) кадра/сек
Цветовое пространство : YUV
Субдискретизация насыщенности : 4:2:0
Битовая глубина : 8 бит
Тип развёртки : Прогрессивная
Бит/(Пиксели*Кадры) : 0.590
Размер потока : 21,3 Гбайт (75%)
Заголовок : Get_Out_2017_3хRus[DUB_iTuness]_Eng_DD5.1_N.B_BD-Remux_1080p
Язык : Russian
Default : Да
Forced : Нет

Аудио #1
Идентификатор : 5
Формат : AC-3
Формат/Информация : Audio Coding 3
Параметр Endianness формата : Big
Идентификатор кодека : A_AC3
Продолжительность : 1 ч. 44 м.
Вид битрейта : Постоянный
Битрейт : 384 Кбит/сек
Каналы : 6 каналов
Расположение каналов : Front: L C R, Side: L R, LFE
Частота : 48,0 КГц
Частота кадров : 31,250 кадров/сек (1536 SPF)
Битовая глубина : 16 бит
Метод сжатия : С потерями
Задержка видео : -26 мс.
Размер потока : 286 Мбайт (1%)
Заголовок : Rus DUB iTuness @DD5.1 AC3 ,384 Kbps, 48.0 KHz, 6 ch
Язык : Russian
ServiceKind/String : Complete Main
Default : Да
Forced : Нет

Аудио #2
Идентификатор : 6
Формат : AC-3
Формат/Информация : Audio Coding 3
Параметр Endianness формата : Big
Идентификатор кодека : A_AC3
Продолжительность : 1 ч. 44 м.
Вид битрейта : Постоянный
Битрейт : 384 Кбит/сек
Каналы : 6 каналов
Расположение каналов : Front: L C R, Side: L R, LFE
Частота : 48,0 КГц
Частота кадров : 31,250 кадров/сек (1536 SPF)
Битовая глубина : 16 бит
Метод сжатия : С потерями
Задержка видео : -26 мс.
Размер потока : 286 Мбайт (1%)
Заголовок : MVO AlexFilm @DD5.1 AC3, 384 Kbps, 48.0 KHz, 6 ch
Язык : Russian
ServiceKind/String : Complete Main
Default : Нет
Forced : Нет

Аудио #3
Идентификатор : 7
Формат : AC-3
Формат/Информация : Audio Coding 3
Параметр Endianness формата : Big
Идентификатор кодека : A_AC3
Продолжительность : 1 ч. 44 м.
Вид битрейта : Постоянный
Битрейт : 384 Кбит/сек
Каналы : 6 каналов
Расположение каналов : Front: L C R, Side: L R, LFE
Частота : 48,0 КГц
Частота кадров : 31,250 кадров/сек (1536 SPF)
Битовая глубина : 16 бит
Метод сжатия : С потерями
Задержка видео : -26 мс.
Размер потока : 286 Мбайт (1%)
Заголовок : АVO Jarocki @DD5.1 AC3, 384 Kbps, 48.0 KHz, 6 ch
Язык : Russian
ServiceKind/String : Complete Main
Default : Нет
Forced : Нет

Аудио #4
Идентификатор : 8
Формат : DTS
Формат/Информация : Digital Theater Systems
Режим : 16
Параметр Endianness формата : Big
Идентификатор кодека : A_DTS
Продолжительность : 1 ч. 44 м.
Вид битрейта : Постоянный
Битрейт : 3968 Кбит/сек
Каналы : 6 каналов
Расположение каналов : Front: L C R, Side: L R, LFE
Частота : 48,0 КГц
Частота кадров : 46,875 кадров/сек (1024 SPF)
Битовая глубина : 16 бит
Метод сжатия : С потерями
Задержка видео : -26 мс.
Размер потока : 2,89 Гбайт (10%)
Заголовок : Rus DUB iTuness @DTS,3968 Kbps, 48.0 KHz, 6 ch
Язык : Russian
Default : Нет
Forced : Нет

Аудио #5
Идентификатор : 9
Формат : AC-3
Формат/Информация : Audio Coding 3
Параметр Endianness формата : Big
Идентификатор кодека : A_AC3
Продолжительность : 1 ч. 44 м.
Вид битрейта : Постоянный
Битрейт : 384 Кбит/сек
Каналы : 6 каналов
Расположение каналов : Front: L C R, Side: L R, LFE
Частота : 48,0 КГц
Частота кадров : 31,250 кадров/сек (1536 SPF)
Битовая глубина : 16 бит
Метод сжатия : С потерями
Задержка видео : -26 мс.
Размер потока : 286 Мбайт (1%)
Заголовок : Original@DD5.1 AC3 , 384 Kbps, 48.0 KHz, 6 ch
Язык : English
ServiceKind/String : Complete Main
Default : Нет
Forced : Нет

Аудио #6
Идентификатор : 10
Формат : AC-3
Формат/Информация : Audio Coding 3
Параметр Endianness формата : Big
Идентификатор кодека : A_AC3
Продолжительность : 1 ч. 44 м.
Вид битрейта : Постоянный
Битрейт : 192 Кбит/сек
Каналы : 6 каналов
Расположение каналов : Front: L C R, Side: L R, LFE
Частота : 48,0 КГц
Частота кадров : 31,250 кадров/сек (1536 SPF)
Битовая глубина : 16 бит
Метод сжатия : С потерями
Задержка видео : -26 мс.
Размер потока : 143 Мбайт (0%)
Заголовок : Descriptive Original@DD5.1 AC3 , 192 Kbps, 48.0 KHz, 6 ch
Язык : English
ServiceKind/String : Complete Main
Default : Нет
Forced : Нет

Аудио #7
Идентификатор : 11
Формат : DTS
Формат/Информация : Digital Theater Systems
Режим : 16
Параметр Endianness формата : Big
Идентификатор кодека : A_DTS
Продолжительность : 1 ч. 44 м.
Вид битрейта : Постоянный
Битрейт : 3968 Кбит/сек
Каналы : 6 каналов
Расположение каналов : Front: L C R, Side: L R, LFE
Частота : 48,0 КГц
Частота кадров : 46,875 кадров/сек (1024 SPF)
Битовая глубина : 16 бит
Метод сжатия : С потерями
Задержка видео : -26 мс.
Размер потока : 2,89 Гбайт (10%)
Заголовок : Original @DTS,3968 Kbps, 48.0 KHz, 6 ch
Язык : English
Default : Нет
Forced : Нет

Текст #1
Идентификатор : 2
Формат : UTF-8
Идентификатор кодека : S_TEXT/UTF8
Идентификатор кодека/Информация : UTF-8 Plain Text
Продолжительность : 1 ч. 39 м.
Битрейт : 72 бит/сек
ElementCount : 856
Размер потока : 52,6 Кбайт (0%)
Заголовок : Rus
Язык : Russian
Default : Да
Forced : Нет

Текст #2
Идентификатор : 3
Формат : UTF-8
Идентификатор кодека : S_TEXT/UTF8
Идентификатор кодека/Информация : UTF-8 Plain Text
Продолжительность : 1 ч. 38 м.
Битрейт : 49 бит/сек
ElementCount : 1232
Размер потока : 35,6 Кбайт (0%)
Заголовок : Original
Язык : English
Default : Нет
Forced : Нет

Текст #3
Идентификатор : 4
Формат : PGS
Режим смешивания : zlib
Идентификатор кодека : S_HDMV/PGS
Идентификатор кодека/Информация : Picture based subtitle format used on BDs/HD-DVDs
Продолжительность : 1 ч. 38 м.
Битрейт : 36,9 Кбит/сек
ElementCount : 2827
Размер потока : 26,1 Мбайт (0%)
Заголовок : SDH
Язык : English
Default : Нет
Forced : Нет

Меню
00:00:00.000 : en:Глава 01 / en:Глава 01 / en:Глава 01 / en:Глава 01
00:00:00.026 : en:Глава 01 / en:Глава 01 / en:Глава 01 / en:Глава 01 / en:Глава 01 / en:Глава 01 / en:Глава 01














Релиз от: Nikolai.Baranov & PIRATIYA





  • Торрент
Автор: Враг Нароода Хэш: 2a7e70660283bfd6548c465213c138c04bc5bcdf
Добавлен: 08 июл 2017, 22:28 Приватный: Нет (DHT включён)
Статус: Проверен
Размер: 28.56 ГБ (30 668 328 572 байт)
Изменил:
---
Скачали: 0 (Раздающих: 0%)
Причина:
---
Здоровье: ???%
Сидеров: 0 Личеров: 3
Скорость раздачи: 0 байт/сек Скорость скачивания: 0 байт/сек
Последний сидер: 2 года 3 месяца 3 дня 11 минут 50 секунд назад Последний личер: 6 дней 12 часов 35 минут 20 секунд назад
Скачать торрент Магнет ссылка
Скачать торрент
[ Размер 76.12 КБ / Просмотров 2 ]

Вернуться в HD DVD/BD/HDTV-Rip


cron
Ресурс не предоставляет электронные версии произведений, а занимается лишь коллекционированием и каталогизацией ссылок, присылаемых и публикуемых на форуме нашими читателями. Если вы являетесь правообладателем какого-либо представленного материала и не желаете чтобы ссылка на него находилась в нашем каталоге, свяжитесь с нами и мы незамедлительно удалим её. Файлы для обмена на трекере предоставлены пользователями сайта, и администрация не несёт ответственности за их содержание. Просьба не заливать файлы, защищенные авторскими правами, а также файлы нелегального содержания!