Форсаж 8 / The Fate of the Furious [2017] ( Ф. Гэри Грей) [Боевик, триллер, криминал, приключения ] [BDRip 1080p] [DD5.1] [Dub Rus, Englis + Subs Rus , ENG] [ iTunes]


Раздал: 53.05 ТБ
Скачал: 13.98 ГБ
Ратио: 3884.909
Сообщения: 395

Зарегистрирован: 25 май 2015, 11:30
Форсаж 8 / The Fate of the Furious



Год выпуска: 2017
Выпущено: США, One Race Films, Original Film, Пифагор, Universal Pictures
Жанр: Боевик, триллер, криминал, приключения
Продолжительность: 02:17:08

Озвучка 1: Дублированный - - iTunes-Русский

Озвучка 2: Профессиональный многоголосый -Английский -Оригинал

Субтитры: Russian (Forced, iTunes), Russian (iTunes), English (Forced, iTunes), English (SDH, iTunes)



IMDB

Режиссер:
Ф. Гэри Грей

В ролях: Вин Дизель, Дуэйн Джонсон, Джейсон Стэйтем, Мишель Родригес, Тайриз Гибсон, Лудакрис, Натали Эммануэль, Курт Расселл, Скотт Иствуд, Шарлиз Терон



Пристегните ремни — гонка продолжается. Гавана, Берлин, Нью-Йорк — для самой крутой команды в мире нет ничего невозможного, пока они вместе. Но когда на их пути окажется одна из самых красивых женщин на планете и по совместительству королева киберпреступности, дороги друзей разойдутся.





Качество :BDRip 1080p Источник: The.Fate.Of.The. Furious.2017.COMPLETE.BLURAY
Формат: MKV
Видео кодек: H264
Видео: 17,5Мбит/сек,1920х1080(16.9),в 29.970кадр/сек,,AVC(Baseline@L5.1)(1Ref Frames)
Аудио Кодек:AC3
Аудио Кодек:DTS

Аудио #1:AC3 , 384 Kbps, 48.0 KHz, 6 ch- -Дублированный- iTunes-Русский

Аудио #2:DTS, 3968 Kbps, 48.0 KHz,6 ch - -Дублированный- iTunes-Русский

Аудио #3: AC3, 384 Kbps, 48.0 KHz,6 ch - - English-Английский -Оригинал

Аудио #4: DTS, 3968 Kbps, 48.0 KHz,6 ch - - English-Английский -Оригинал

Аудио #5:AC3, 192 Kbps, 48.0 KHz,6 ch - - English-Английский - Descriptive-Оригинал



Общее
Уникальный идентификатор : 199549492299618108750430294352996737288 (0x961FD5921C23C94BA84FE51C1FB22108)
Полное имя : C:\ХОББИ\ПИРАТИЯ(PIRATIYA)\ФОРСАЖ 8\THE_FATE_OF_THE_FURIOUS_2017_Rus[DUB_iTuness]_Eng_DD5.1_N.B_BDRip_1080p\The_Fate_of_ the_Furious_2017_Rus[DUB_iTuness]_Eng_DD5.1_N.B_BDRip_1080p.mkv
Формат : Matroska
Версия формата : Version 4 / Version 2
Размер файла : 25,1 Гбайт
Продолжительность : 2 ч. 15 м.
Режим общего битрейта : Переменный
Общий поток : 26,4 Мбит/сек
Название фильма : The_Fate_of_ the_Furious_2017_Rus[DUB_iTuness]_Eng_DD5.1_N.B_BDRip_1080p
Дата кодирования : UTC 2017-07-04 13:00:02
Программа кодирования : mkvmerge v13.0.0 ('The Juggler') 64bit
Библиотека кодирования : libebml v1.3.4 + libmatroska v1.4.5

Видео
Идентификатор : 1
Формат : AVC
Формат/Информация : Advanced Video Codec
Профиль формата : Baseline@L5.1
Параметр CABAC формата : Нет
Параметр RefFrames формата : 1 кадр
Параметр GOP формата : M=1, N=12
Идентификатор кодека : V_MPEG4/ISO/AVC
Продолжительность : 2 ч. 15 м.
Вид битрейта : Переменный
Битрейт : 17,5 Мбит/сек
Максимальный битрейт : 21,0 Мбит/сек
Ширина : 1920 пикселей
Высота : 1080 пикселей
Соотношение сторон : 16:9
Режим частоты кадров : Постоянный
Частота кадров : 29,970 (29970/1000) кадров/сек
Частота кадров в оригинале : 24,000 кадра/сек
Цветовое пространство : YUV
Субдискретизация насыщенности : 4:2:0
Битовая глубина : 8 бит
Тип развёртки : Прогрессивная
Бит/(Пиксели*Кадры) : 0.281
Размер потока : 16,6 Гбайт (66%)
Заголовок : The_Fate_of_ the_Furious_2017_Rus[DUB_iTuness]_Eng_DD5.1_N.B_BDRip_1080p
Язык : Russian
Default : Да
Forced : Нет

Аудио #1
Идентификатор : 8
Формат : AC-3
Формат/Информация : Audio Coding 3
Параметр Endianness формата : Big
Идентификатор кодека : A_AC3
Продолжительность : 2 ч. 15 м.
Вид битрейта : Постоянный
Битрейт : 384 Кбит/сек
Каналы : 6 каналов
Расположение каналов : Front: L C R, Side: L R, LFE
Частота : 48,0 КГц
Частота кадров : 31,250 кадров/сек (1536 SPF)
Битовая глубина : 16 бит
Метод сжатия : С потерями
Размер потока : 373 Мбайт (1%)
Заголовок : DUB iTuness @DD5.1 AC3 ,384 Kbps, 48.0 KHz, 6 ch
Язык : Russian
ServiceKind/String : Complete Main
Default : Да
Forced : Нет

Аудио #2
Идентификатор : 9
Формат : DTS
Формат/Информация : Digital Theater Systems
Режим : 16
Параметр Endianness формата : Big
Идентификатор кодека : A_DTS
Продолжительность : 2 ч. 15 м.
Вид битрейта : Постоянный
Битрейт : 3968 Кбит/сек
Каналы : 6 каналов
Расположение каналов : Front: L C R, Side: L R, LFE
Частота : 48,0 КГц
Частота кадров : 46,875 кадров/сек (1024 SPF)
Битовая глубина : 16 бит
Метод сжатия : С потерями
Размер потока : 3,77 Гбайт (15%)
Заголовок : DUB iTuness @DTS,3968 Kbps, 48.0 KHz, 6 ch
Язык : Russian
Default : Нет
Forced : Нет

Аудио #3
Идентификатор : 10
Формат : AC-3
Формат/Информация : Audio Coding 3
Параметр Endianness формата : Big
Идентификатор кодека : A_AC3
Продолжительность : 2 ч. 15 м.
Вид битрейта : Постоянный
Битрейт : 384 Кбит/сек
Каналы : 6 каналов
Расположение каналов : Front: L C R, Side: L R, LFE
Частота : 48,0 КГц
Частота кадров : 31,250 кадров/сек (1536 SPF)
Битовая глубина : 16 бит
Метод сжатия : С потерями
Размер потока : 373 Мбайт (1%)
Заголовок : Original@DD5.1 AC3 , 384 Kbps, 48.0 KHz, 6 ch
Язык : English
ServiceKind/String : Complete Main
Default : Нет
Forced : Нет

Аудио #4
Идентификатор : 11
Формат : DTS
Формат/Информация : Digital Theater Systems
Режим : 16
Параметр Endianness формата : Big
Идентификатор кодека : A_DTS
Продолжительность : 2 ч. 15 м.
Вид битрейта : Постоянный
Битрейт : 3968 Кбит/сек
Каналы : 6 каналов
Расположение каналов : Front: L C R, Side: L R, LFE
Частота : 48,0 КГц
Частота кадров : 46,875 кадров/сек (1024 SPF)
Битовая глубина : 16 бит
Метод сжатия : С потерями
Размер потока : 3,77 Гбайт (15%)
Заголовок : Original @DTS,3968 Kbps, 48.0 KHz, 6 ch
Язык : English
Default : Нет
Forced : Нет

Аудио #5
Идентификатор : 12
Формат : AC-3
Формат/Информация : Audio Coding 3
Параметр Endianness формата : Big
Идентификатор кодека : A_AC3
Продолжительность : 2 ч. 15 м.
Вид битрейта : Постоянный
Битрейт : 192 Кбит/сек
Каналы : 6 каналов
Расположение каналов : Front: L C R, Side: L R, LFE
Частота : 48,0 КГц
Частота кадров : 31,250 кадров/сек (1536 SPF)
Битовая глубина : 16 бит
Метод сжатия : С потерями
Размер потока : 187 Мбайт (1%)
Заголовок : Descriptive Original@DD5.1 AC3 , 192 Kbps, 48.0 KHz, 6 ch
Язык : English
ServiceKind/String : Complete Main
Default : Нет
Forced : Нет

Текст #1
Идентификатор : 2
Формат : PGS
Режим смешивания : zlib
Идентификатор кодека : S_HDMV/PGS
Идентификатор кодека/Информация : Picture based subtitle format used on BDs/HD-DVDs
Продолжительность : 2 ч. 7 м.
Битрейт : 1300 бит/сек
ElementCount : 86
Размер потока : 1,19 Мбайт (0%)
Заголовок : Rus - Forced - iTunes
Язык : Russian
Default : Да
Forced : Нет

Текст #2
Идентификатор : 3
Формат : PGS
Режим смешивания : zlib
Идентификатор кодека : S_HDMV/PGS
Идентификатор кодека/Информация : Picture based subtitle format used on BDs/HD-DVDs
Продолжительность : 2 ч. 14 м.
Битрейт : 43,5 Кбит/сек
ElementCount : 3026
Размер потока : 41,9 Мбайт (0%)
Заголовок : Rus - iTunes
Язык : Russian
Default : Нет
Forced : Нет

Текст #3
Идентификатор : 4
Формат : PGS
Режим смешивания : zlib
Идентификатор кодека : S_HDMV/PGS
Идентификатор кодека/Информация : Picture based subtitle format used on BDs/HD-DVDs
Продолжительность : 1 ч. 48 м.
Битрейт : 1540 бит/сек
ElementCount : 110
Размер потока : 1,20 Мбайт (0%)
Заголовок : Eng - Forced - iTunes
Язык : English
Default : Нет
Forced : Нет

Текст #4
Идентификатор : 5
Формат : UTF-8
Идентификатор кодека : S_TEXT/UTF8
Идентификатор кодека/Информация : UTF-8 Plain Text
Продолжительность : 2 ч. 3 м.
Битрейт : 51 бит/сек
ElementCount : 1516
Размер потока : 46,5 Кбайт (0%)
Заголовок : Original
Язык : English
Default : Нет
Forced : Нет

Текст #5
Идентификатор : 6
Формат : PGS
Режим смешивания : zlib
Идентификатор кодека : S_HDMV/PGS
Идентификатор кодека/Информация : Picture based subtitle format used on BDs/HD-DVDs
Продолжительность : 2 ч. 4 м.
Битрейт : 58,3 Кбит/сек
ElementCount : 3682
Размер потока : 51,8 Мбайт (0%)
Заголовок : Original - SDH - iTunes
Язык : English
Default : Нет
Forced : Нет

Текст #6
Идентификатор : 7
Формат : UTF-8
Идентификатор кодека : S_TEXT/UTF8
Идентификатор кодека/Информация : UTF-8 Plain Text
Продолжительность : 2 ч. 14 м.
Битрейт : 76 бит/сек
ElementCount : 1513
Размер потока : 75,9 Кбайт (0%)
Заголовок : Rus
Язык : Russian
Default : Нет
Forced : Нет

Меню
00:00:00.000 : en:Глава 01 / en:Глава 01 / en:Глава 01 / en:Глава 01 / en:Глава 01 / en:Глава 01 / en:Глава 01 / en:Глава 01 / en:Глава 01 / en:Глава 01 / en:Глава 01















Релиз от: Nikolai.Baranov & PIRATIYA





  • Торрент
Автор: Враг Нароода Хэш: 2f92982e408a4de4a81e48610cdd7614276568e5
Добавлен: 04 июл 2017, 19:10 Приватный: Нет (DHT включён)
Статус: Проверен
Размер: 25.28 ГБ (27 144 319 345 байт)
Изменил:
---
Скачали: 0 (Раздающих: 0%)
Причина:
---
Здоровье: 0%
Сидеров: 0 Личеров: 0
Скорость раздачи: 0 байт/сек Скорость скачивания: 0 байт/сек
Последний сидер: 1 год 5 месяцев 6 дней 5 часов 18 минут 2 секунды назад Последний личер: Нет
Скачать торрент Магнет ссылка
Скачать торрент
[ Размер 67.97 КБ / Просмотров 1 ]

Вернуться в HD DVD/BD/HDTV-Rip


cron
Ресурс не предоставляет электронные версии произведений, а занимается лишь коллекционированием и каталогизацией ссылок, присылаемых и публикуемых на форуме нашими читателями. Если вы являетесь правообладателем какого-либо представленного материала и не желаете чтобы ссылка на него находилась в нашем каталоге, свяжитесь с нами и мы незамедлительно удалим её. Файлы для обмена на трекере предоставлены пользователями сайта, и администрация не несёт ответственности за их содержание. Просьба не заливать файлы, защищенные авторскими правами, а также файлы нелегального содержания!