Шаг навстречу (серии 1-3 из ??) (Семён Винокур) [2011, телепередача,WEB-DL Rip 720p]


Раздал: 102.23 ГБ
Скачал: 0 байт
Ратио: None.
Сообщения: 38

Зарегистрирован: 29 авг 2012, 03:21
#7

Шаг навстречу / серии 1-3 из ??


Год выпуска: 2011
Страна: Россия, Израиль
Производство: Ari Films
Жанр: телепередача
Продолжительность: 01:48:42
Перевод: оригинал (русский язык)
Субтитры: нет

В ролях: Михаэль Лайтман, Елена Фридман, Нуца Шаншиашвили

Режиссёр: Семён Винокур

Описание: В чем заключается гармония взаимоотношений? Как жить и наслаждаться жизнью? К чему должен стремиться человек, чтобы ощутить особый комфорт?

Качество: WEB-DL Rip 720p
Формат: MP4
Видео кодек: MPEG-4 AVC (H.264)
Аудио кодек: AAC
Видео: 1280x720, 25,000 fps, ~ 1150 Kbps, ~ 0.050 bit/pixel
Аудио: 44,1 kHz, 2 (L,R) ch, ~ 100 kb/s


Аудиоверсия телепередачи Шаг навстречу / выпуски 1-3 из ??



Общее
Полное имя : Shag_navstrechu\Шаг навстречу. Нуца Шаншиашвили.mp4
Формат : MPEG-4
Профиль формата : Base Media / Version 2
Идентификатор кодека : mp42
Размер файла : 411 Мбайт
Продолжительность : 46 м.
Режим общего битрейта : Переменный
Общий поток : 1231 Кбит/сек
Дата кодирования : UTC 2012-06-28 12:29:00
Дата пометки : UTC 2012-06-28 12:29:00
gsst : 0
gstd : 2798003
gssd : B4A7DDA01MH1341198843360221
gshh : o-o.preferred.fra07t11.v1.cache1.c.youtube.com

Видео
Идентификатор : 1
Формат : AVC
Формат/Информация : Advanced Video Codec
Профиль формата : High@L3.1
Параметр CABAC формата : Да
Параметр ReFrames формата : 1 кадр
Параметр GOP формата : M=1, N=60
Идентификатор кодека : avc1
Идентификатор кодека/Информация : Advanced Video Coding
Продолжительность : 46 м.
Битрейт : 1127 Кбит/сек
Максимальный битрейт : 2924 Кбит/сек
Ширина : 1280 пикселей
Высота : 720 пикселей
Соотношение сторон : 16:9
Режим частоты кадров : Постоянный
Частота кадров : 25,000 кадров/сек
Цветовое пространство : YUV
Субдискретизация насыщенности : 4:2:0
Битовая глубина : 8 бит
Тип развёртки : Прогрессивная
Бит/(Пиксели*Кадры) : 0.049
Размер потока : 376 Мбайт (92%)
Дата пометки : UTC 2012-06-28 12:29:02

Аудио
Идентификатор : 2
Формат : AAC
Формат/Информация : Advanced Audio Codec
Профиль формата : LC
Идентификатор кодека : 40
Продолжительность : 46 м.
Вид битрейта : Переменный
Битрейт : 102 Кбит/сек
Максимальный битрейт : 163 Кбит/сек
Каналы : 2 канала
Расположение каналов : Front: L R
Частота : 44,1 КГц
Метод сжатия : С потерями
Размер потока : 34,0 Мбайт (8%)
Заголовок : IsoMedia File Produced by Google, 5-11-2011
Дата кодирования : UTC 2012-06-28 12:29:01
Дата пометки : UTC 2012-06-28 12:29:02

01. Шаг навстречу. Нуца Шаншиашвили (46:37)
02. Шаг навстречу. Познание (30:04)
03. Шаг навстречу. Свобода (31:59)

Внимание! Раздача ведётся путём добавления новых выпусков; при каждом добавлении создаётся новый торрент. Чтобы начать докачку нового выпуска, пользователям необходимо сделать следующее:
(1) остановить скачивание,
(2) удалить старый торрент у себя из клиента (старые серии удалять не надо),
(3) скачать новый торрент и запустить его у себя в клиенте вместо старого, при этом указать клиенту путь в старую папку куда и должно происходить скачивание новых выпусков.
Ваш клиент при этом должен произвести хеширование (проверку) старой папки (если не производит сам - помогите ему сделать это). В результате он будет докачивать только те выпуски, которых у Вас ещё нет. Старые выпуски при этом не удаляются, а продолжают раздаваться!
Eсли Вы уже удалили старые выпуски, то предотвратить их повторную закачку можно, сняв галочки в соответствующих местах при запуске нового торрента. По возможности, желательно не удалять старые выпуски как можно дольше, чтобы релизёр не только продолжал раздавать старые выпуски, но и смог сконцентрироваться на новых.
  • Торрент
Автор: krasyarBB Хэш: c6ce21d7e9d7fe7bc542507b60e6d6fe01eed168
Добавлен: 03 апр 2013, 17:08 Приватный: Нет (DHT включён)
Статус: Проверен
Размер: 1.01 ГБ (1 079 311 029 байт)
Изменил:
---
Скачали: 1 (Раздающих: 0%)
Причина:
---
Здоровье: 100%
Сидеров: 22 Личеров: 4
Скорость раздачи: 0 байт/сек Скорость скачивания: 0 байт/сек
Последний сидер: 4 месяца 6 дней 9 часов 15 минут 57 секунд назад Последний личер: 4 месяца 6 дней 9 часов 15 минут 57 секунд назад
Скачать торрент Магнет ссылка
Скачать торрент
[ Размер 22.31 КБ / Просмотров 44 ]

Вернуться в Другое


cron
Ресурс не предоставляет электронные версии произведений, а занимается лишь коллекционированием и каталогизацией ссылок, присылаемых и публикуемых на форуме нашими читателями. Если вы являетесь правообладателем какого-либо представленного материала и не желаете чтобы ссылка на него находилась в нашем каталоге, свяжитесь с нами и мы незамедлительно удалим её. Файлы для обмена на трекере предоставлены пользователями сайта, и администрация не несёт ответственности за их содержание. Просьба не заливать файлы, защищенные авторскими правами, а также файлы нелегального содержания!