Интегральный мир (серии 1-20 из ??) (Семён Винокур) [2011-2012, телепередача,WEB-DL Rip 720p]


Раздал: 102.23 ГБ
Скачал: 0 байт
Ратио: None.
Сообщения: 38

Зарегистрирован: 29 авг 2012, 03:21
#7

Интегральный мир / серии 1-20 из ??


Год выпуска: 2011-2012
Страна: Россия, Израиль
Производство: Ari Films
Жанр: телепередача
Продолжительность: 21:33:56
Перевод: оригинал (русский язык)
Субтитры: нет

В ролях: Михаэль Лайтман, Михаил Санилевич, Елена Фридман, Ирина Руднева, Семен Винокур, Эли Винокур

Режиссёр: Семён Винокур

Описание: Когда мы достигнем между собой интегральной связи, каждый из нас получит абсолютное знание, абсолютное ощущение всего мироздания. Он станет той же свободной птицей, связанной со всеми остальными. Но одновременно с этим им никто не будет управлять, кроме общего желания, общей цели, общего плана. То есть ты становишься связанным со всеми и в то же время абсолютно свободным...

Качество: WEB-DL Rip 720p
Формат: MP4
Видео кодек: MPEG-4 AVC (H.264)
Аудио кодек: AAC
Видео: 1280x720, 25,000 fps, ~ 1150 Kbps, ~ 0.050 bit/pixel
Аудио: 44,1 kHz, 2 (L,R) ch, ~ 110 kb/s


Аудиоверсия телепередачи Интегральный мир / выпуски 1-20 из ??



Общее
Полное имя : Integralnyj_mir\2011-08-14_Интегральный мир. Движение Взаимное поручительство.mp4
Формат : MPEG-4
Профиль формата : Base Media / Version 2
Идентификатор кодека : mp42
Размер файла : 516 Мбайт
Продолжительность : 1 ч. 0 м.
Режим общего битрейта : Переменный
Общий поток : 1189 Кбит/сек
Дата кодирования : UTC 2012-06-28 08:01:41
Дата пометки : UTC 2012-06-28 08:01:41
gsst : 0
gstd : 3641700
gssd : B4A7DDA22MH1341199194685793
gshh : o-o.preferred.fra07t11.v2.cache2.c.youtube.com

Видео
Идентификатор : 1
Формат : AVC
Формат/Информация : Advanced Video Codec
Профиль формата : High@L3.1
Параметр CABAC формата : Да
Параметр ReFrames формата : 1 кадр
Параметр GOP формата : M=1, N=60
Идентификатор кодека : avc1
Идентификатор кодека/Информация : Advanced Video Coding
Продолжительность : 1 ч. 0 м.
Битрейт : 1076 Кбит/сек
Максимальный битрейт : 3294 Кбит/сек
Ширина : 1280 пикселей
Высота : 720 пикселей
Соотношение сторон : 16:9
Режим частоты кадров : Постоянный
Частота кадров : 25,000 кадров/сек
Цветовое пространство : YUV
Субдискретизация насыщенности : 4:2:0
Битовая глубина : 8 бит
Тип развёртки : Прогрессивная
Бит/(Пиксели*Кадры) : 0.047
Размер потока : 467 Мбайт (91%)
Дата пометки : UTC 2012-06-28 08:01:46

Аудио
Идентификатор : 2
Формат : AAC
Формат/Информация : Advanced Audio Codec
Профиль формата : LC
Идентификатор кодека : 40
Продолжительность : 1 ч. 0 м.
Вид битрейта : Переменный
Битрейт : 110 Кбит/сек
Максимальный битрейт : 156 Кбит/сек
Каналы : 2 канала
Расположение каналов : Front: L R
Частота : 44,1 КГц
Метод сжатия : С потерями
Размер потока : 47,9 Мбайт (9%)
Заголовок : IsoMedia File Produced by Google, 5-11-2011
Дата кодирования : UTC 2012-06-28 08:01:45
Дата пометки : UTC 2012-06-28 08:01:46

01. 2011-08-14_Интегральный мир. Движение Взаимное поручительство (60:41)
02. 2011-08-21_Интегральный мир. Беседа о поручительстве (59:13)
03. 2011-08-28_Интегральный мир. Безопасность Израиля (72:14)
04. 2011-09-04_Интегральный мир. Глобальное воспитание ч. 1 (58:09)
05. 2011-09-07_Интегральный мир. Глобальное воспитание ч. 2 (62:22)
06. 2011-09-25_Интегральный мир. Глобальное воспитание ч. 3 (75:39)
07. 2011-10-16_Интегральный мир. Мир эгоистический, мир интегральный (55:37)
08. 2011-10-30_Интегральный мир. Взаимная зависимость (63:07)
09. 2011-12-28_Интегральный мир. Сердце и разум (45:02)
10. 2011-12-30_Интегральный мир. СНГ сегодня (59:10)
11. 2012-06-07_Интегральный мир. Методика решения конфликтов (571:27)
12. 2012-06-10_Интегральный мир. Интегральное воспитание ч. 1 (707:50)
13. 2012-06-11_Интегральный мир. Интегральное воспитание ч. 2 (1328:52)
14. 2012-06-14_Интегральный мир. Интегральное воспитание ч. 3 (658:45)
15. 2012-07-01_Интегральный мир. Формула интегрального общества ч. 1 (91:47)
16. 2012-07-02_Интегральный мир. Формула интегрального общества ч. 2 (82:25)
17. 2012-07-03_Интегральный мир. Формула интегрального общества ч. 3 (106:03)
18. 2012-07-03_Интегральный мир. Формула интегрального общества ч. 4 (99:10)
19. 2012-07-04_Интегральный мир. Взаимная ответственность ч. 4 (23:47)
20. 2012-11-26_Интегральный мир. Интегральный мир ч. 1 (94:04)

Внимание! Раздача ведётся путём добавления новых выпусков; при каждом добавлении создаётся новый торрент. Чтобы начать докачку нового выпуска, пользователям необходимо сделать следующее:
(1) остановить скачивание,
(2) удалить старый торрент у себя из клиента (старые серии удалять не надо),
(3) скачать новый торрент и запустить его у себя в клиенте вместо старого, при этом указать клиенту путь в старую папку куда и должно происходить скачивание новых выпусков.
Ваш клиент при этом должен произвести хеширование (проверку) старой папки (если не производит сам - помогите ему сделать это). В результате он будет докачивать только те выпуски, которых у Вас ещё нет. Старые выпуски при этом не удаляются, а продолжают раздаваться!
Eсли Вы уже удалили старые выпуски, то предотвратить их повторную закачку можно, сняв галочки в соответствующих местах при запуске нового торрента. По возможности, желательно не удалять старые выпуски как можно дольше, чтобы релизёр не только продолжал раздавать старые выпуски, но и смог сконцентрироваться на новых.
  • Торрент
Автор: krasyarBB Хэш: b9f7ce055144429458f8c5f79798c6aef8f3581d
Добавлен: 03 апр 2013, 17:04 Приватный: Нет (DHT включён)
Статус: Проверен
Размер: 13.66 ГБ (14 667 232 261 байт)
Изменил:
---
Скачали: 0 (Раздающих: 0%)
Причина:
---
Здоровье: 100%
Сидеров: 6 Личеров: 3
Скорость раздачи: 0 байт/сек Скорость скачивания: 0 байт/сек
Последний сидер: 20 дней 21 час 43 минуты 13 секунд назад Последний личер: 20 дней 21 час 43 минуты 13 секунд назад
Скачать торрент Магнет ссылка
Скачать торрент
[ Размер 72.79 КБ / Просмотров 50 ]

Вернуться в Другое


cron
Ресурс не предоставляет электронные версии произведений, а занимается лишь коллекционированием и каталогизацией ссылок, присылаемых и публикуемых на форуме нашими читателями. Если вы являетесь правообладателем какого-либо представленного материала и не желаете чтобы ссылка на него находилась в нашем каталоге, свяжитесь с нами и мы незамедлительно удалим её. Файлы для обмена на трекере предоставлены пользователями сайта, и администрация не несёт ответственности за их содержание. Просьба не заливать файлы, защищенные авторскими правами, а также файлы нелегального содержания!