Глобальный кризис (серии 1-14 из ??) (Семён Винокур) [2009-2012, телепередача,WEB-DL Rip 720p]


Раздал: 102.23 ГБ
Скачал: 0 байт
Ратио: None.
Сообщения: 38

Зарегистрирован: 29 авг 2012, 03:21
#7

Глобальный кризис / серии 1-14 из ??


Год выпуска: 2009-2012
Страна: Россия, Израиль
Производство: Ari Films
Жанр: телепередача
Продолжительность: 10:35:12
Перевод: оригинал (русский язык)
Субтитры: нет

В ролях: Михаэль Лайтман, Константин Кальченко, Сергей Жданко, Илья Винокур, Анатолий Ульянов, Леонид Макарон, Сергей Белицкий, Сет Богнер

Режиссёр: Семён Винокур

Описание: Глобальный кризис, охвативший все сферы жизнедеятельности, свидетельствует, что мир отработал современную ступень развития. Кризис – ни что иное, как показатель готовности мира подняться на следующий уровень, находящийся над нашей материей.

Качество: WEB-DL Rip 720p
Формат: MP4
Видео кодек: MPEG-4 AVC (H.264)
Аудио кодек: AAC
Видео: 1280x720, 25,000 fps, ~ 1150 Kbps, ~ 0.050 bit/pixel
Аудио: 44,1 kHz, 2 (L,R) ch, ~ 96 kb/s


Аудиоверсия телепередачи Глобальный кризис / выпуски 1-14 из ??



Общее
Полное имя : Globalnyj_krizis\2009-02-01_Глобальный кризис. Экономика нового мира.mp4
Формат : MPEG-4
Профиль формата : Base Media
Идентификатор кодека : isom
Размер файла : 503 Мбайт
Продолжительность : 41 м.
Режим общего битрейта : Переменный
Общий поток : 1683 Кбит/сек
Программа кодирования : Lavf52.93.0

Видео
Идентификатор : 1
Формат : AVC
Формат/Информация : Advanced Video Codec
Профиль формата : Baseline@L3.1
Параметр CABAC формата : Нет
Параметр ReFrames формата : 1 кадр
Идентификатор кодека : avc1
Идентификатор кодека/Информация : Advanced Video Coding
Продолжительность : 41 м.
Битрейт : 1576 Кбит/сек
Ширина : 1280 пикселей
Высота : 720 пикселей
Соотношение сторон : 16:9
Режим частоты кадров : Постоянный
Частота кадров : 25,000 кадров/сек
Цветовое пространство : YUV
Субдискретизация насыщенности : 4:2:0
Битовая глубина : 8 бит
Тип развёртки : Прогрессивная
Бит/(Пиксели*Кадры) : 0.068
Размер потока : 473 Мбайт (94%)
Библиотека кодирования : x264 core 112
Настройки программы : cabac=0 / ref=1 / deblock=1:0:0 / analyse=0x1:0x111 / me=hex / subme=7 / psy=1 / psy_rd=1.00:0.00 / mixed_ref=0 / me_range=16 / chroma_me=1 / trellis=1 / 8x8dct=0 / cqm=0 / deadzone=21,11 / fast_pskip=1 / chroma_qp_offset=-2 / threads=1 / sliced_threads=0 / nr=0 / decimate=1 / interlaced=0 / constrained_intra=0 / bframes=0 / weightp=0 / keyint=250 / keyint_min=25 / scenecut=40 / intra_refresh=0 / rc_lookahead=40 / rc=abr / mbtree=1 / bitrate=1576 / ratetol=1.0 / qcomp=0.60 / qpmin=10 / qpmax=51 / qpstep=4 / ip_ratio=1.41 / aq=1:1.00
Язык : English

Аудио
Идентификатор : 2
Формат : AAC
Формат/Информация : Advanced Audio Codec
Профиль формата : LC
Идентификатор кодека : 40
Продолжительность : 41 м.
Вид битрейта : Переменный
Битрейт : 96,0 Кбит/сек
Каналы : 2 канала
Расположение каналов : Front: L R
Частота : 44,1 КГц
Метод сжатия : С потерями
Размер потока : 28,8 Мбайт (6%)

01. 2009-02-01_Глобальный кризис. Экономика нового мира (41:47)
02. 2009-04-08_Глобальный кризис. Образование и СМИ (27:47)
03. 2009-04-08_Глобальный кризис. Программа действий (30:33)
04. 2009-09-18_Глобальный кризис. К экономике разумных потребностей (29:39)
05. 2009-12-23_Глобальный кризис. В чём причина (71:40)
06. 2010-09-22_Глобальный кризис. Взгляд в никуда (28:55)
07. 2010-09-22_Глобальный кризис. Новая ступень (08:06)
08. 2010-09-22_Глобальный кризис. Новое поколение (27:09)
09. 2011-11-06_Глобальный кризис. Кризис современной науки (61:32)
10. 2012-02-07_Глобальный кризис. Новый мировой экономический порядок (30:00)
11. 2012-03-01_Глобальный кризис. Дефицит неограниченных ресурсов (60:27)
12. 2012-03-02_Глобальный кризис. Выход из кризиса (75:42)
13. 2012-03-03_Глобальный кризис. Воспитание (80:39)
14. 2012-03-03_Глобальный кризис. Образование (62:22)

Внимание! Раздача ведётся путём добавления новых выпусков; при каждом добавлении создаётся новый торрент. Чтобы начать докачку нового выпуска, пользователям необходимо сделать следующее:
(1) остановить скачивание,
(2) удалить старый торрент у себя из клиента (старые серии удалять не надо),
(3) скачать новый торрент и запустить его у себя в клиенте вместо старого, при этом указать клиенту путь в старую папку куда и должно происходить скачивание новых выпусков.
Ваш клиент при этом должен произвести хеширование (проверку) старой папки (если не производит сам - помогите ему сделать это). В результате он будет докачивать только те выпуски, которых у Вас ещё нет. Старые выпуски при этом не удаляются, а продолжают раздаваться!
Eсли Вы уже удалили старые выпуски, то предотвратить их повторную закачку можно, сняв галочки в соответствующих местах при запуске нового торрента. По возможности, желательно не удалять старые выпуски как можно дольше, чтобы релизёр не только продолжал раздавать старые выпуски, но и смог сконцентрироваться на новых.
  • Торрент
Автор: krasyarBB Хэш: 2b6a38b2a0577f5b20aace0f0fa2e722a71c1e80
Добавлен: 03 апр 2013, 16:57 Приватный: Нет (DHT включён)
Статус: Проверен
Размер: 5.96 ГБ (6 398 277 149 байт)
Изменил:
---
Скачали: 1 (Раздающих: 0%)
Причина:
---
Здоровье: 100%
Сидеров: 12 Личеров: 6
Скорость раздачи: 0 байт/сек Скорость скачивания: 0 байт/сек
Последний сидер: 4 месяца 6 дней 9 часов 35 минут 19 секунд назад Последний личер: 4 месяца 6 дней 9 часов 35 минут 19 секунд назад
Скачать торрент Магнет ссылка
Скачать торрент
[ Размер 33.39 КБ / Просмотров 55 ]

Вернуться в Другое


cron
Ресурс не предоставляет электронные версии произведений, а занимается лишь коллекционированием и каталогизацией ссылок, присылаемых и публикуемых на форуме нашими читателями. Если вы являетесь правообладателем какого-либо представленного материала и не желаете чтобы ссылка на него находилась в нашем каталоге, свяжитесь с нами и мы незамедлительно удалим её. Файлы для обмена на трекере предоставлены пользователями сайта, и администрация не несёт ответственности за их содержание. Просьба не заливать файлы, защищенные авторскими правами, а также файлы нелегального содержания!