Сила книги Зоар (серии 1-21 из 21) (Семён Винокур) [2010, телепередача,WEB-DL Rip 720p]


Раздал: 102.23 ГБ
Скачал: 0 байт
Ратио: None.
Сообщения: 38

Зарегистрирован: 29 авг 2012, 03:21
#7

Сила книги Зоар / серии 1-21 из 21


Год выпуска: 2010
Страна: Россия, Израиль
Производство: Ari Films
Жанр: телепередача
Продолжительность: 10:24:16
Перевод: оригинал (русский язык)
Субтитры: нет

В ролях: Михаэль Лайтман, Александр Демидов

Режиссёр: Семён Винокур

Описание: Книга Зоар – особая инструкция, написанная почти две тысячи лет назад величайшим каббалистом рабби Шимоном Бар Йохаем и его учениками, раскрывает всем устройство мироздания, смысл букв, тайны кругооборотов душ и будущего человечества.

Качество: WEB-DL Rip 720p
Формат: MP4
Видео кодек: MPEG-4 AVC (H.264)
Аудио кодек: AAC
Видео: 1280x720, 25,000 fps, ~ 1150 Kbps, ~ 0.050 bit/pixel
Аудио: 44,1 kHz, 2 (L,R) ch, ~ 150 kb/s


Аудиоверсия телепередачи Сила книги Зоар / выпуски 1-21 из 21



Общее
Полное имя : Sila_knigi_Zoar\Сила книги Зоар № 01.mp4
Формат : MPEG-4
Профиль формата : Base Media / Version 2
Идентификатор кодека : mp42
Размер файла : 310 Мбайт
Продолжительность : 28 м.
Режим общего битрейта : Переменный
Общий поток : 1505 Кбит/сек
Дата кодирования : UTC 2012-05-07 10:35:19
Дата пометки : UTC 2012-05-07 10:35:19
gsst : 0
gstd : 1726286
gssd : B4A7DDAC2MH1341204803032330
gshh : o-o.preferred.fra07t11.v2.cache7.c.youtube.com

Видео
Идентификатор : 1
Формат : AVC
Формат/Информация : Advanced Video Codec
Профиль формата : High@L3.1
Параметр CABAC формата : Да
Параметр ReFrames формата : 1 кадр
Параметр GOP формата : M=1, N=30
Идентификатор кодека : avc1
Идентификатор кодека/Информация : Advanced Video Coding
Продолжительность : 28 м.
Битрейт : 1351 Кбит/сек
Максимальный битрейт : 2440 Кбит/сек
Ширина : 1280 пикселей
Высота : 720 пикселей
Соотношение сторон : 16:9
Режим частоты кадров : Постоянный
Частота кадров : 25,000 кадров/сек
Цветовое пространство : YUV
Субдискретизация насыщенности : 4:2:0
Битовая глубина : 8 бит
Тип развёртки : Прогрессивная
Бит/(Пиксели*Кадры) : 0.059
Размер потока : 278 Мбайт (90%)
Дата пометки : UTC 2012-05-07 10:35:38

Аудио
Идентификатор : 2
Формат : AAC
Формат/Информация : Advanced Audio Codec
Профиль формата : LC
Идентификатор кодека : 40
Продолжительность : 28 м.
Вид битрейта : Переменный
Битрейт : 152 Кбит/сек
Максимальный битрейт : 202 Кбит/сек
Каналы : 2 канала
Расположение каналов : Front: L R
Частота : 44,1 КГц
Метод сжатия : С потерями
Размер потока : 31,3 Мбайт (10%)
Заголовок : IsoMedia File Produced by Google, 5-11-2011
Дата кодирования : UTC 2012-05-07 10:35:28
Дата пометки : UTC 2012-05-07 10:35:38

01. Сила книги Зоар № 01 (28:46)
02. Сила книги Зоар № 02 (27:37)
03. Сила книги Зоар № 03 (27:35)
04. Сила книги Зоар № 04 (29:01)
05. Сила книги Зоар № 05 (29:23)
06. Сила книги Зоар № 06 (31:50)
07. Сила книги Зоар № 07 (31:44)
08. Сила книги Зоар № 08 (29:30)
09. Сила книги Зоар № 09 (29:22)
10. Сила книги Зоар № 10 (28:53)
11. Сила книги Зоар № 11 (29:49)
12. Сила книги Зоар № 12 (28:05)
13. Сила книги Зоар № 13 (30:04)
14. Сила книги Зоар № 14 (25:32)
15. Сила книги Зоар № 15 (30:28)
16. Сила книги Зоар № 16 (29:49)
17. Сила книги Зоар № 17 (30:28)
18. Сила книги Зоар № 18 (31:42)
19. Сила книги Зоар № 19 (30:49)
20. Сила книги Зоар № 20 (29:26)
21. Сила книги Зоар № 21 (34:14)

  • Торрент
Автор: krasyarBB Хэш: e0e603b06d72e6ced093cd0c64764f7dffabfb91
Добавлен: 03 апр 2013, 15:26 Приватный: Нет (DHT включён)
Статус: Проверен
Размер: 6.37 ГБ (6 834 991 657 байт)
Изменил:
---
Скачали: 0 (Раздающих: 0%)
Причина:
---
Здоровье: 100%
Сидеров: 13 Личеров: 5
Скорость раздачи: 0 байт/сек Скорость скачивания: 0 байт/сек
Последний сидер: 4 месяца 6 дней 9 часов 10 минут 28 секунд назад Последний личер: 4 месяца 6 дней 9 часов 10 минут 28 секунд назад
Скачать торрент Магнет ссылка
Скачать торрент
[ Размер 35.24 КБ / Просмотров 61 ]

Вернуться в Другое


cron
Ресурс не предоставляет электронные версии произведений, а занимается лишь коллекционированием и каталогизацией ссылок, присылаемых и публикуемых на форуме нашими читателями. Если вы являетесь правообладателем какого-либо представленного материала и не желаете чтобы ссылка на него находилась в нашем каталоге, свяжитесь с нами и мы незамедлительно удалим её. Файлы для обмена на трекере предоставлены пользователями сайта, и администрация не несёт ответственности за их содержание. Просьба не заливать файлы, защищенные авторскими правами, а также файлы нелегального содержания!