Крупным планом (серии 1-51 из 51) (Семён Винокур) [2009-2011, телепередача,WEB-DL Rip 720p]


Раздал: 102.23 ГБ
Скачал: 0 байт
Ратио: None.
Сообщения: 38

Зарегистрирован: 29 авг 2012, 03:21
#7

Крупным планом / серии 1-51 из 51


Год выпуска: 2009-2011
Страна: Россия, Израиль
Производство: Ari Films
Жанр: телепередача
Продолжительность: 23:36:56
Перевод: оригинал (русский язык)
Субтитры: нет

В ролях: Михаэль Лайтман, Елена Фридман

Режиссёр: Семён Винокур

Описание: Что такое человек, и в чем его суть? Почему я ничего не определяю в своей жизни, хотя я - человек, центр мироздания? В чем мое предназначение и предназначение окружающего меня мира, смысл жизни для меня? Что же, все это движется в никуда и не имеет цели? А возможно, эта цель существует, и ее знание способно полностью изменить мою жизнь, дав понять, что моя жизнь - не просто короткий бессмысленный эпизод, что она гораздо богаче, глубже, интереснее, что она вечна, поскольку имеет непреходящий смысл? Может, мы просто недостаточно интересовались этим, подменяя вечное временным, а главное - второстепенным?

Качество: WEB-DL Rip 720p
Формат: MP4
Видео кодек: MPEG-4 AVC (H.264)
Аудио кодек: AAC
Видео: 1280x720, 25,000 fps, ~ 1150 Kbps, ~ 0.050 bit/pixel
Аудио: 44,1 kHz, 2 (L,R) ch, ~ 150 kb/s


Аудиоверсия телепередачи Крупным планом / выпуски 1-51 из 51



Общее
Полное имя : Krupnym_planom\2009-08-11_Крупным планом. Вопросы о главном.mp4
Формат : MPEG-4
Профиль формата : Base Media / Version 2
Идентификатор кодека : mp42
Размер файла : 237 Мбайт
Продолжительность : 28 м.
Режим общего битрейта : Переменный
Общий поток : 1173 Кбит/сек
Дата кодирования : UTC 2012-06-28 12:13:16
Дата пометки : UTC 2012-06-28 12:13:16
gsst : 0
gstd : 1697726
gssd : B4A7DDA03MH1341198851860247
gshh : o-o.preferred.fra07t11.v3.cache1.c.youtube.com

Видео
Идентификатор : 1
Формат : AVC
Формат/Информация : Advanced Video Codec
Профиль формата : High@L3.1
Параметр CABAC формата : Да
Параметр ReFrames формата : 1 кадр
Параметр GOP формата : M=1, N=60
Идентификатор кодека : avc1
Идентификатор кодека/Информация : Advanced Video Coding
Продолжительность : 28 м.
Битрейт : 1063 Кбит/сек
Максимальный битрейт : 3052 Кбит/сек
Ширина : 1280 пикселей
Высота : 720 пикселей
Соотношение сторон : 16:9
Режим частоты кадров : Постоянный
Частота кадров : 25,000 кадров/сек
Цветовое пространство : YUV
Субдискретизация насыщенности : 4:2:0
Битовая глубина : 8 бит
Тип развёртки : Прогрессивная
Бит/(Пиксели*Кадры) : 0.046
Размер потока : 215 Мбайт (91%)
Дата пометки : UTC 2012-06-28 12:13:38

Аудио
Идентификатор : 2
Формат : AAC
Формат/Информация : Advanced Audio Codec
Профиль формата : LC
Идентификатор кодека : 40
Продолжительность : 28 м.
Вид битрейта : Переменный
Битрейт : 108 Кбит/сек
Максимальный битрейт : 159 Кбит/сек
Каналы : 2 канала
Расположение каналов : Front: L R
Частота : 44,1 КГц
Метод сжатия : С потерями
Размер потока : 21,9 Мбайт (9%)
Заголовок : IsoMedia File Produced by Google, 5-11-2011
Дата кодирования : UTC 2012-06-28 12:13:31
Дата пометки : UTC 2012-06-28 12:13:38

01. 2009-08-11_Крупным планом. Вопросы о лавном (28:17)
02. 2009-08-11_Крупным планом. Гражданский брак (28:34)
03. 2009-08-19_Крупным планом. Брачный договор (28:31)
04. 2009-08-19_Крупным планом. Человек - это желание (28:15)
05. 2009-08-24_Крупным планом. Детская депрессия (27:10)
06. 2009-08-24_Крупным планом. Поколение (26:50)
07. 2009-09-09_Крупным планом. Надежда на мир (28:06)
08. 2009-09-09_Крупным планом. Точка отсчёта (29:31)
09. 2009-09-16_Крупным планом. Ищущие (29:46)
10. 2009-09-16_Крупным планом. Эмансипация (27:49)
11. 2009-09-30_Крупным планом. Общий закон (27:27)
12. 2009-12-11_Крупным планом. Изгнание (28:23)
13. 2009-12-11_Крупным планом. Отличие в душах (27:06)
14. 2010-01-01_Крупным планом. Двуглавый орёл (27:05)
15. 2010-01-01_Крупным планом. Остров Огненный (26:52)
16. 2010-01-15_Крупным планом. Индивидуалист (27:02)
17. 2010-01-15_Крупным планом. Кентавры (27:32)
18. 2010-02-05_Крупным планом. Загадка Сфинкса (27:02)
19. 2010-02-05_Крупным планом. Судьба и книга Зоар (27:19)
20. 2010-02-19_Крупным планом. Анамнез (29:08)
21. 2010-02-19_Крупным планом. Возвращение (29:25)
22. 2010-03-10_Крупным планом. Поколение Леди Гага (27:51)
23. 2010-03-10_Крупным планом. Презумпция невиновности (28:42)
24. 2010-04-07_Крупным планом. Договор о партнерстве (27:28)
25. 2010-04-07_Крупным планом. Подводя итоги (27:52)
26. 2010-05-03_Крупным планом. За последней чертой (26:45)
27. 2010-05-03_Крупным планом. Реинкарнация (26:59)
28. 2010-07-18_Крупным планом. Театр абсурда (27:21)
29. 2010-07-18_Крупным планом. Формула Творца (27:09)
30. 2010-08-08_Крупным планом. Особое мнение (27:29)
31. 2010-08-08_Крупным планом. Прав ли Франкл (27:49)
32. 2010-09-19_Крупным планом. Ген альтруизма (28:02)
33. 2010-09-19_Крупным планом. Сиамские близнецы (27:15)
34. 2010-10-24_Крупным планом. Русский генофонд (27:26)
35. 2010-10-24_Крупным планом. Филадельфийский эксперимент (27:45)
36. 2010-11-28_Крупным планом. Нежеланные дети (26:37)
37. 2010-12-19_Крупным планом. Вне закона (27:01)
38. 2010-12-19_Крупным планом. Тайны бессмертия (26:34)
39. 2010-12-26_Крупным планом. Европа сегодня ч. 1 (37:58)
40. 2010-12-26_Крупным планом. Европа сегодня ч. 2 (27:59)
41. 2011-01-23_Крупным планом. Пророк (28:39)
42. 2011-01-23_Крупным планом. Смещение полюсов (27:47)
43. 2011-02-20_Крупным планом. Бог существует (28:08)
44. 2011-02-20_Крупным планом. Вокруг света (26:40)
45. 2011-03-20_Крупным планом. Ветка сакуры ч. 1 (29:36)
46. 2011-03-20_Крупным планом. Ветка сакуры ч. 2 (20:08)
47. 2011-03-27_Крупным планом. Особая территория (26:31)
48. 2011-05-29_Крупным планом. Голограмма (26:56)
49. 2011-05-29_Крупным планом. Тайна жизни (27:34)
50. 2011-07-17_Крупным планом. Секрет генома (27:55)
51. 2011-07-17_Крупным планом. Эпоха глобализации (27:27)

  • Торрент
Автор: krasyarBB Хэш: d4e0e4eb2e50def58a15e0a44cfadb8890cce048
Добавлен: 03 апр 2013, 15:22 Приватный: Нет (DHT включён)
Статус: Проверен
Размер: 13.95 ГБ (14 979 215 325 байт)
Изменил:
---
Скачали: 0 (Раздающих: 0%)
Причина:
---
Здоровье: 100%
Сидеров: 4 Личеров: 3
Скорость раздачи: 0 байт/сек Скорость скачивания: 0 байт/сек
Последний сидер: 4 месяца 6 дней 8 часов 58 минут 50 секунд назад Последний личер: 4 месяца 6 дней 8 часов 58 минут 50 секунд назад
Скачать торрент Магнет ссылка
Скачать торрент
[ Размер 76.88 КБ / Просмотров 55 ]

Вернуться в Другое


cron
Ресурс не предоставляет электронные версии произведений, а занимается лишь коллекционированием и каталогизацией ссылок, присылаемых и публикуемых на форуме нашими читателями. Если вы являетесь правообладателем какого-либо представленного материала и не желаете чтобы ссылка на него находилась в нашем каталоге, свяжитесь с нами и мы незамедлительно удалим её. Файлы для обмена на трекере предоставлены пользователями сайта, и администрация не несёт ответственности за их содержание. Просьба не заливать файлы, защищенные авторскими правами, а также файлы нелегального содержания!