Прикосновение к истине (серии 1-2 из 2) (Семён Винокур) [2007, документально-познавательный,WEB-DL Rip 720p]


Раздал: 102.23 ГБ
Скачал: 0 байт
Ратио: None.
Сообщения: 38

Зарегистрирован: 29 авг 2012, 03:21
#7

Прикосновение к истине / серии 1-2 из 2


Год выпуска: 2007
Страна: Россия, Израиль
Производство: Ari Films
Жанр: документально-познавательный
Продолжительность: серия 1 - 00:37:23, серия 2 - 00:45:54
Перевод: оригинал (русский язык)
Субтитры: нет

В ролях: Михаэль Лайтман

Режиссёр: Семён Винокур

Описание: Фильм-знакомство, фильм-открытие.
Наш современник волею судьбы оказался преемником каббалистической школы, которой насчитывается уже 4000 лет. Его приглашают в самые популярные ток-шоу, теле- и радиопередачи, его интервьюируют самые популярные журналисты, цитируют и называют мудрецом самые известные ученые. Зритель видит на экране человека, энергия и интеллект которого поражают, простота и искренность обезоруживают. Это ученый-каббалист.

Качество: WEB-DL Rip 720p
Формат: MP4
Видео кодек: MPEG-4 AVC (H.264)
Аудио кодек: AAC
Видео: 1280x720, 25,000 fps, 1982-1993 Kbps, 0.086-0.087 bit/pixel
Аудио: 44,1 kHz, 2 (L,R) ch, 128 kb/s
[b]



Общее
Полное имя : Прикосновение к истине 1.mp4
Формат : MPEG-4
Профиль формата : Base Media / Version 2
Идентификатор кодека : mp42
Размер файла : 565 Мбайт
Продолжительность : 37 м.
Режим общего битрейта : Переменный
Общий поток : 2115 Кбит/сек
Дата кодирования : UTC 2011-02-10 01:42:14
Дата пометки : UTC 2011-02-10 01:42:14
gsst : 0
gstd : 2243080
gssd : B4A7DA8A8MM1335674615817988
gshh : o-o.preferred.svo01s01.v8.lscache8.c.youtube.com
Видео
Идентификатор : 1
Формат : AVC
Формат/Информация : Advanced Video Codec
Профиль формата : High@L3.1
Параметр CABAC формата : Да
Параметр ReFrames формата : 1 кадр
Параметр GOP формата : M=1, N=30
Идентификатор кодека : avc1
Идентификатор кодека/Информация : Advanced Video Coding
Продолжительность : 37 м.
Битрейт : 1982 Кбит/сек
Максимальный битрейт : 8483 Кбит/сек
Ширина : 1280 пикселей
Высота : 720 пикселей
Соотношение сторон : 16:9
Режим частоты кадров : Постоянный
Частота кадров : 25,000 кадров/сек
Цветовое пространство : YUV
Субдискретизация насыщенности : 4:2:0
Битовая глубина : 8 бит
Тип развёртки : Прогрессивная
Бит/(Пиксели*Кадры) : 0.086
Размер потока : 530 Мбайт (94%)
Дата пометки : UTC 2011-02-10 01:42:45
Аудио
Идентификатор : 2
Формат : AAC
Формат/Информация : Advanced Audio Codec
Профиль формата : LC
Идентификатор кодека : 40
Продолжительность : 37 м.
Вид битрейта : Переменный
Битрейт : 128 Кбит/сек
Максимальный битрейт : 201 Кбит/сек
Каналы : 2 канала
Расположение каналов : Front: L R
Частота : 44,1 КГц
Метод сжатия : С потерями
Размер потока : 34,2 Мбайт (6%)
Заголовок : (C) 2007 Google Inc. v08.13.2007.
Дата кодирования : UTC 2011-02-10 01:42:26
Дата пометки : UTC 2011-02-10 01:42:45
-----------------------------------------------------------------------
Общее
Полное имя : Прикосновение к истине 2.mp4
Формат : MPEG-4
Профиль формата : Base Media / Version 2
Идентификатор кодека : mp42
Размер файла : 698 Мбайт
Продолжительность : 45 м.
Режим общего битрейта : Переменный
Общий поток : 2126 Кбит/сек
Дата кодирования : UTC 2011-02-10 05:18:54
Дата пометки : UTC 2011-02-10 05:18:54
gsst : 0
gstd : 2754880
gssd : B4A7DD822MH1335674591220310
gshh : o-o.preferred.bru02t11.v2.cache2.c.youtube.com
Видео
Идентификатор : 1
Формат : AVC
Формат/Информация : Advanced Video Codec
Профиль формата : High@L3.1
Параметр CABAC формата : Да
Параметр ReFrames формата : 1 кадр
Идентификатор кодека : avc1
Идентификатор кодека/Информация : Advanced Video Coding
Продолжительность : 45 м.
Битрейт : 1993 Кбит/сек
Максимальный битрейт : 8378 Кбит/сек
Ширина : 1280 пикселей
Высота : 720 пикселей
Соотношение сторон : 16:9
Режим частоты кадров : Постоянный
Частота кадров : 25,000 кадров/сек
Цветовое пространство : YUV
Субдискретизация насыщенности : 4:2:0
Битовая глубина : 8 бит
Тип развёртки : Прогрессивная
Бит/(Пиксели*Кадры) : 0.087
Размер потока : 655 Мбайт (94%)
Дата пометки : UTC 2011-02-10 05:19:07
Аудио
Идентификатор : 2
Формат : AAC
Формат/Информация : Advanced Audio Codec
Профиль формата : LC
Идентификатор кодека : 40
Продолжительность : 45 м.
Вид битрейта : Переменный
Битрейт : 128 Кбит/сек
Максимальный битрейт : 191 Кбит/сек
Каналы : 2 канала
Расположение каналов : Front: L R
Частота : 44,1 КГц
Метод сжатия : С потерями
Размер потока : 42,0 Мбайт (6%)
Заголовок : (C) 2007 Google Inc. v08.13.2007.
Дата кодирования : UTC 2011-02-10 05:19:01
Дата пометки : UTC 2011-02-10 05:19:07

  • Торрент
Автор: krasyarBB Хэш: f319c532b8ef488722cb4bce729a1fb7d3d16d65
Добавлен: 03 апр 2013, 14:14 Приватный: Нет (DHT включён)
Статус: Проверен
Размер: 1.23 ГБ (1 324 885 247 байт)
Изменил:
---
Скачали: 0 (Раздающих: 0%)
Причина:
---
Здоровье: 100%
Сидеров: 11 Личеров: 3
Скорость раздачи: 0 байт/сек Скорость скачивания: 0 байт/сек
Последний сидер: 4 месяца 6 дней 8 часов 31 минуту 19 секунд назад Последний личер: 4 месяца 6 дней 8 часов 31 минуту 19 секунд назад
Скачать торрент Магнет ссылка
Скачать торрент
[ Размер 26.8 КБ / Просмотров 45 ]

Вернуться в Другое


cron
Ресурс не предоставляет электронные версии произведений, а занимается лишь коллекционированием и каталогизацией ссылок, присылаемых и публикуемых на форуме нашими читателями. Если вы являетесь правообладателем какого-либо представленного материала и не желаете чтобы ссылка на него находилась в нашем каталоге, свяжитесь с нами и мы незамедлительно удалим её. Файлы для обмена на трекере предоставлены пользователями сайта, и администрация не несёт ответственности за их содержание. Просьба не заливать файлы, защищенные авторскими правами, а также файлы нелегального содержания!