Иерусалим который в сердце / Yerushalim she ba lev (Семён Винокур) [2007, документально-познавательный,WEB-DL Rip 720p] (VO)


Раздал: 102.23 ГБ
Скачал: 0 байт
Ратио: None.
Сообщения: 38

Зарегистрирован: 29 авг 2012, 03:21
#7

Иерусалим который в сердце


Год выпуска: 2007
Страна: Израиль
Производство: Ari Films
Жанр: документально-познавательный
Продолжительность: 00:28:20
Перевод: профессиональный (одноголосый)
Субтитры: нет

В ролях: Михаэль Лайтман

Режиссёр: Семён Винокур

Описание: Машиах сидит у врат Иерусалима и ждет, когда же люди будут готовы к избавлению. Закован он в кандалы и нуждается в совершенных людях, которые освободят его из оков. Довольно ему людей слепой веры. Довольно ему широких сердец.
Сегодня он требует глубины сердца в людях истины.
(Рабби из Коцка)
Люди считают Иерусалим – духовной столицей мира. Это поистине святое место для всех религий, и на самом деле это место святости в мире. Это центр мира. Ведь здесь присутствует некая особая сила, которая в каждом человеке ощущается по-своему.
Что эта за сила, которая вдруг возникает в человеке и действует на него, притягивая его к Иерусалиму? А есть такие, кого она, наоборот, отталкивает.
Человек начинает чувствовать духовный корень этого города. Он существует внутри нас, рядом с нами, и в нем есть духовная жизнь, вечная жизнь – сила любви.
Мы видим камни, улицы, но сам этот город мы не чувствуем. Истинный Иерусалим возможно ощутить только в исправленном сердце.

Качество: WEB-DL Rip 720p
Формат: MP4
Видео кодек: MPEG-4 AVC (H.264)
Аудио кодек: AAC
Видео: 1280x720, 25,000 fps, 2053 Kbps, 0.089 bit/pixel
Аудио: 44,1 kHz, 2 (L,R) ch, 128 kb/s




Общее
Полное имя : Ierusalim_kotoryj_v_serdce.mp4
Формат : MPEG-4
Профиль формата : Base Media / Version 2
Идентификатор кодека : mp42
Размер файла : 443 Мбайт
Продолжительность : 28 м.
Режим общего битрейта : Переменный
Общий поток : 2185 Кбит/сек
Дата кодирования : UTC 2011-02-09 14:50:57
Дата пометки : UTC 2011-02-09 14:50:57
gsst : 0
gstd : 1700440
gssd : B4A7DD865MH1335674692521607
gshh : o-o.preferred.bru02t11.v5.cache4.c.youtube.com
Видео
Идентификатор : 1
Формат : AVC
Формат/Информация : Advanced Video Codec
Профиль формата : High@L3.1
Параметр CABAC формата : Да
Параметр ReFrames формата : 1 кадр
Параметр GOP формата : M=1, N=30
Идентификатор кодека : avc1
Идентификатор кодека/Информация : Advanced Video Coding
Продолжительность : 28 м.
Битрейт : 2053 Кбит/сек
Максимальный битрейт : 8016 Кбит/сек
Ширина : 1280 пикселей
Высота : 720 пикселей
Соотношение сторон : 16:9
Режим частоты кадров : Постоянный
Частота кадров : 25,000 кадров/сек
Цветовое пространство : YUV
Субдискретизация насыщенности : 4:2:0
Битовая глубина : 8 бит
Тип развёртки : Прогрессивная
Бит/(Пиксели*Кадры) : 0.089
Размер потока : 416 Мбайт (94%)
Дата пометки : UTC 2011-02-09 14:51:12
Аудио
Идентификатор : 2
Формат : AAC
Формат/Информация : Advanced Audio Codec
Профиль формата : LC
Идентификатор кодека : 40
Продолжительность : 28 м.
Вид битрейта : Переменный
Битрейт : 128 Кбит/сек
Максимальный битрейт : 199 Кбит/сек
Каналы : 2 канала
Расположение каналов : Front: L R
Частота : 44,1 КГц
Метод сжатия : С потерями
Размер потока : 25,9 Мбайт (6%)
Заголовок : (C) 2007 Google Inc. v08.13.2007.
Дата кодирования : UTC 2011-02-09 14:51:07
Дата пометки : UTC 2011-02-09 14:51:12

  • Торрент
Автор: krasyarBB Хэш: 0d48037646b9276af4248bdbab8e941c27cc1803
Добавлен: 24 мар 2013, 09:28 Приватный: Нет (DHT включён)
Статус: Проверен
Размер: 442.94 МБ (464 454 789 байт)
Изменил:
---
Скачали: 21 (Раздающих: 0%)
Причина:
---
Здоровье: 100%
Сидеров: 29 Личеров: 2
Скорость раздачи: 0 байт/сек Скорость скачивания: 0 байт/сек
Последний сидер: 1 месяц 18 дней 8 часов 25 минут 48 секунд назад Последний личер: 1 месяц 18 дней 8 часов 25 минут 48 секунд назад
Скачать торрент Магнет ссылка
Скачать торрент
[ Размер 36.01 КБ / Просмотров 76 ]

Вернуться в Документальные фильмы


cron
Ресурс не предоставляет электронные версии произведений, а занимается лишь коллекционированием и каталогизацией ссылок, присылаемых и публикуемых на форуме нашими читателями. Если вы являетесь правообладателем какого-либо представленного материала и не желаете чтобы ссылка на него находилась в нашем каталоге, свяжитесь с нами и мы незамедлительно удалим её. Файлы для обмена на трекере предоставлены пользователями сайта, и администрация не несёт ответственности за их содержание. Просьба не заливать файлы, защищенные авторскими правами, а также файлы нелегального содержания!